Собутыльники / Drinking Buddies (Джо Сванберг / Joe Swanberg) [2013 г., Драма, Мелодрама, Комедия, WEB-DLRip]

Ответить на тему
 

atgerkin ®

Стаж: 7 лет

Сообщений: 247

Симпатии: 78

Собутыльники / Drinking Buddies-- Год выпуска: 2013
Страна: США
Жанр: Драма, Мелодрама, Комедия
Продолжительность: 01:30:22
Перевод: Одноголосый закадровый-Режиссер: Джо Сванберг / Joe Swanberg-В ролях: Оливия Уайлд, Джейк Джонсон, Анна Кендрик, Рон Ливингстон, Джо Сванберг, Тай Уэст, Роберта Чунг, Калли Стефенс, Сэм Слэйтер, Майк Брюн-Описание: Люк и Кейт сотрудники чикагского пивоваренного завода, где они проводят свои дни, выпивая и флиртуя. Они идеально подходят друг другу, но вот только они оба уже состоят в отношениях…- 
-Качество: WEB-DLRip
Формат: AVI
Видео кодек: XviD
Видео: 720x304 (2.37:1), 23.976 fps, XviD build 50 ~1771 kbps avg, 0.34 bit/pixel
Аудио: 48 kHz, AC3 Dolby Digital, 3/2 (L,C,R,l,r) + LFE ch, ~384 kbps

MI

Общее
Полное имя : Sobutylniki.2013.L1.WEBDLRip.1400MB.avi
Формат : AVI
Формат/Информация : Audio Video Interleave
Размер файла : 1,37 Гбайт
Продолжительность : 1 ч. 30 м.
Общий поток : 2165 Кбит/сек
Программа кодирования : VirtualDubMod 1.5.10.2 (build 2540/release)
Библиотека кодирования : VirtualDubMod build 2540/release
Видео
Идентификатор : 0
Формат : MPEG-4 Visual
Профиль формата : Advanced [email protected]
Параметр BVOP формата : 2
Параметр QPel формата : Нет
Параметр GMC формата : Без точки перехода
Параметр матрицы формата : Default (MPEG)
Идентификатор кодека : XVID
Идентификатор кодека/Подсказка : XviD
Продолжительность : 1 ч. 30 м.
Битрейт : 1772 Кбит/сек
Ширина : 720 пикселей
Высота : 304 пикселя
Соотношение сторон : 2,35:1
Частота кадров : 23,976 кадра/сек
Цветовое пространство : YUV
Субдискретизация насыщенности : 4:2:0
Битовая глубина : 8 бит
Тип развёртки : Прогрессивная
Метод сжатия : С потерями
Бит/(Пиксели*Кадры) : 0.338
Размер потока : 1,12 Гбайт (82%)
Библиотека кодирования : XviD 1.2.1 (UTC 2008-12-04)
Аудио
Идентификатор : 1
Формат : AC-3
Формат/Информация : Audio Coding 3
Расширение режима : CM (complete main)
Параметр Endianness формата : Big
Идентификатор кодека : 2000
Продолжительность : 1 ч. 30 м.
Вид битрейта : Постоянный
Битрейт : 384 Кбит/сек
Каналы : 6 каналов
Расположение каналов : Front: L C R, Side: L R, LFE
Частота : 48,0 КГц
Битовая глубина : 16 бит
Метод сжатия : С потерями
Размер потока : 248 Мбайт (18%)
Выравнивание : Разделение по промежуткам
Продолжительность промежутка : 42 мс. (1,00 видеокадр)
Время предзагрузки промежутка : 500 мс.

Скриншоты






Создавать темы 08-Авг-2013 15:28

[Профиль]  [ЛС] 

TronT

Стаж: 7 лет 2 месяца

Сообщений: 27

Симпатии: 7

Столько сидов а скорость обрезали до минимума..

Создавать темы 10-Авг-2013 15:04

[Профиль]  [ЛС] 

VAIO

Стаж: 5 лет 11 месяцев

Сообщений: 1568

Симпатии: 1399

Название фильма многообещающая : ) посмотрим : )

Создавать темы 10-Авг-2013 15:12

[Профиль]  [ЛС] 

rainman555

Стаж: 5 лет 8 месяцев

Сообщений: 23

Симпатии: 3

trash at at at

Создавать темы 17-Авг-2013 19:15

[Профиль]  [ЛС] 

hood1k

Стаж: 4 года 11 месяцев

Сообщений: 91

Симпатии: 3

как филмь стоит смотреть?

Создавать темы 25-Авг-2013 18:53

[Профиль]  [ЛС] 

ashakhruh

Стаж: 5 лет 3 месяца

Сообщений: 1

@hood1k лучше всего сидя. Или лежа.

Создавать темы 25-Авг-2013 22:13

[Профиль]  [ЛС] 

vadmin

Стаж: 7 лет 3 месяца

Сообщений: 70

Симпатии: 13

@hood1k лучше всего сидя. Или лежа.

Создавать темы 25-Авг-2013 22:34

[Профиль]  [ЛС] 

mk

Стаж: 6 лет 11 месяцев

Сообщений: 33

Симпатии: 2

ждем ждем ждем........

Создавать темы 25-Авг-2013 22:38

[Профиль]  [ЛС] 

SeabiscuiT

Стаж: 4 года 9 месяцев

Сообщений: 56

Симпатии: 4

наверно, этот фильм будет интересен людям по-старше, ...не экшн, мало смешных моментов...но, зато люди выясняют для себя, с кем же они все таки хотят остаться по жизни...

Создавать темы 01-Сен-2013 10:49

[Профиль]  [ЛС] 
Показать сообщения:    
Ответить на тему

Текущее время: 18-Дек 15:58

Часовой пояс: UTC + 5



Вы не можете начинать темы
Вы не можете отвечать на сообщения
Вы не можете редактировать свои сообщения
Вы не можете удалять свои сообщения
Вы не можете голосовать в опросах
Вы не можете прикреплять файлы к сообщениям
Вы не можете скачивать файлы