Пираньяконда / Piranhaconda (Джим Уайнорски / Jim Wynorski) [2011, США, Ужасы, HDTVRip] VO + Original Eng

Страницы :  1, 2  След.

Ответить на тему
 

polat ®

Стаж: 7 лет

Сообщений: 9

Пираньяконда / Piranhaconda«Part Snake! Part Fish! All Killer!»-
Год выпуска: 2012
Страна: США
Жанр: ужасы, фантастика, ...слова
Продолжительность: 01:24:42
Перевод: Любительский (одноголосый)
Режиссер: Джим Уайнорски
Сценарий: Майк Маклин, Дж. Брэд Вилке
Продюсер: Форест Кинг, Роджер Корман, Стив Голденберг
Оператор: Андреа В. Россотто
Композитор: Аль Каплан, Джон Каплан
Художник: Роберт Хуммель
Монтаж: Тони Рэндел
В ролях: Майкл Мэдсен / Michael Madsen (Prof. Lovegrove), Рэйчел Хантер / Rachel Hunter (Talia), Райб Хиллс / Rib Hillis (в титрах: Robert «Rib» Hillis) (Jack), Тери Ивенс / Terri Ivens (Rose), Крис Де Кристофер / Chris De Christopher (в титрах: Chris DeChristopher) (Milo), Шанди Финнесси / Shandi Finnessey (Kimmy Weston), Майкл Свон / Michael Swan (Pike), Ной Блейк / Noah Blake (Arturo)
Описание: Съёмочная группа фильма ужасов сталкивается с ужасным гибридом рыбы и змеи…
Бюджет: $1 000 000
Премьера (мир): 16 июня 2012, ...
Качество: HDTVRip
Формат: AVI
Видео кодек: XviD
Аудио кодеk: AC3
Видео: 720x400 (16:9), 29.970 fps, XviD, 1 912 Kbps
Аудио: Аудио #1: AC3, 192 Kbps, 48.0 KHz, 2 ch
Аудио #2: AC3, 192 Kbps, 48.0 KHz, 2 ch

МедиаИнфо

General
Complete name                    : Piranhaconda.2012.HDTVRip.avi
Format                           : AVI
Format/Info                      : Audio Video Interleave
File size                        : 1.37 GiB
Duration                         : 1h 24mn
Overall bit rate                 : 2 313 Kbps
Writing application              : VirtualDubMod 1.5.10.2 (build 2540/release)
Writing library                  : VirtualDubMod build 2540/release
Video
ID                               : 0
Format                           : MPEG-4 Visual
Format profile                   : Advanced [email protected]
Format settings, BVOP            : Yes
Format settings, QPel            : No
Format settings, GMC             : No warppoints
Format settings, Matrix          : Default (H.263)
Codec ID                         : XVID
Codec ID/Hint                    : XviD
Duration                         : 1h 24mn
Bit rate                         : 1 912 Kbps
Width                            : 720 pixels
Height                           : 400 pixels
Display aspect ratio             : 16:9
Frame rate                       : 29.970 fps
Color space                      : YUV
Chroma subsampling               : 4:2:0
Bit depth                        : 8 bits
Scan type                        : Progressive
Bits/(Pixel*Frame)               : 0.221
Stream size                      : 1.13 GiB (83%)
Writing library                  : XviD 1.2.1 (UTC 2008-12-04)
Audio #1
ID                               : 1
Format                           : AC-3
Format/Info                      : Audio Coding 3
Mode extension                   : CM (complete main)
Codec ID                         : 2000
Duration                         : 1h 24mn
Bit rate mode                    : Constant
Bit rate                         : 192 Kbps
Channel(s)                       : 2 channels
Channel positions                : Front: L R
Sampling rate                    : 48.0 KHz
Bit depth                        : 16 bits
Stream size                      : 116 MiB (8%)
Alignment                        : Split accross interleaves
Interleave, duration             : 33 ms (1.00 video frame)
Interleave, preload duration     : 500 ms
Audio #2
ID                               : 2
Format                           : AC-3
Format/Info                      : Audio Coding 3
Mode extension                   : CM (complete main)
Codec ID                         : 2000
Duration                         : 1h 24mn
Bit rate mode                    : Constant
Bit rate                         : 192 Kbps
Channel(s)                       : 2 channels
Channel positions                : Front: L R
Sampling rate                    : 48.0 KHz
Bit depth                        : 16 bits
Stream size                      : 116 MiB (8%)
Alignment                        : Split accross interleaves
Interleave, duration             : 33 ms (1.00 video frame)
Interleave, preload duration     : 500 ms

Скриншоты






Последний раз редактировалось: polat (2013-08-17 01:29), всего редактировалось 3 раз(а)

Создавать темы 09-Авг-2013 03:12

[Профиль]  [ЛС] 

polat ®

Стаж: 7 лет

Сообщений: 9

фильм хороший пиятного просмотра

Создавать темы 09-Авг-2013 03:17

[Профиль]  [ЛС] 

Maxwn

Стаж: 6 лет 8 месяцев

Сообщений: 243

Симпатии: 10

Название смешное) на тв3 смахивает

Создавать темы 09-Авг-2013 04:40

[Профиль]  [ЛС] 

KenDzo007

Стаж: 5 лет 6 месяцев

Сообщений: 15

Название смешное) на тв3 смахивает
ИМЕННО

Создавать темы 09-Авг-2013 07:10

[Профиль]  [ЛС] 

Radmir78

Стаж: 6 лет 11 месяцев

Сообщений: 23

kak multik deshovi film

Создавать темы 09-Авг-2013 08:37

[Профиль]  [ЛС] 

Senat

Стаж: 6 лет 7 месяцев

Сообщений: 251

kak multik deshovi film
на 100% мне не охота смотреть таких фильмов

Создавать темы 09-Авг-2013 08:42

[Профиль]  [ЛС] 

drabadan

Стаж: 4 года 7 месяцев

Сообщений: 28

а мне охота такого питомца

Создавать темы 09-Авг-2013 16:06

[Профиль]  [ЛС] 

totsamiy

Стаж: 5 лет 3 месяца

Сообщений: 145

Симпатии: 22

а мне фиолетовую!!)

Создавать темы 09-Авг-2013 16:29

[Профиль]  [ЛС] 

Asadovdiyor

Стаж: 5 лет 8 месяцев

Сообщений: 192

это типо фильм пираньи сюжет вроде тотже - сказка.... титьки... и немножечко томатной пасты
куда катится мир уже начали штамповать эту ересь... :tm:

Создавать темы 09-Авг-2013 17:58

[Профиль]  [ЛС] 

Oleg2244

Стаж: 4 года 4 месяца

Сообщений: 2

Вухах помоему здесь фильм только из-за титек и смотрят, за все остальное наверное никто и не качал

Создавать темы 11-Авг-2013 08:42

[Профиль]  [ЛС] 

flash008

Стаж: 5 лет 8 месяцев

Сообщений: 99

Вот лоханули спонсора на Бюджет: $1 000 000 ))

Создавать темы 11-Авг-2013 10:21

[Профиль]  [ЛС] 

demon

Стаж: 5 лет 8 месяцев

Сообщений: 11

дайте скорость пожалуйста

Создавать темы 11-Авг-2013 15:11

[Профиль]  [ЛС] 

Alex Dancer

Стаж: 5 лет 8 месяцев

Сообщений: 181

Симпатии: 21

мусор!

Создавать темы 13-Авг-2013 01:07

[Профиль]  [ЛС] 

gektor

Стаж: 6 лет 4 месяца

Сообщений: 68

раздавать будешь

Создавать темы 16-Авг-2013 18:21

[Профиль]  [ЛС] 

Голимый

Стаж: 4 года 11 месяцев

Сообщений: 13

Скачавшие помогите скачать, ато уже давно не могу скачать :(

Создавать темы 26-Окт-2013 22:35

[Профиль]  [ЛС] 
Показать сообщения:    
Ответить на тему

Текущее время: 19-Сен 22:15

Часовой пояс: UTC + 5



Вы не можете начинать темы
Вы не можете отвечать на сообщения
Вы не можете редактировать свои сообщения
Вы не можете удалять свои сообщения
Вы не можете голосовать в опросах
Вы не можете прикреплять файлы к сообщениям
Вы не можете скачивать файлы