Наруто: Ураганные хроники 324 / Naruto Shippuuden 324 (Датэ хаятэ) [RUS][2013 г., Приключения, комедия, боевые искусства, сёнэн, HDTVRip-AVC]

Ответить на тему
 

dreamcetcher ®

Стаж: 5 лет 10 месяцев

Сообщений: 53

Симпатии: 1

Наруто: Ураганные хроники 324 / Naruto Shippuuden 324
Год выпуска: 2013
Страна: Япония
Жанр: Приключения, комедия, боевые искусства, сёнэн
Продолжительность: 23:09
Перевод: Любительский (одноголосый)
Режиссер: Датэ хаятэ
В ролях: Накамура Тиэ / 中村千絵 — Сакура Харуно
Такэучи Дзюнко / 竹内順子 — Наруто Узумаки
Сугияма Нориаки / 杉山紀彰 — Саске Учиха
Исида Акира / 石田彰 — Гаара
Иноуэ Кадзухико / 井上和彦 — Какаши Хатаке
Кудзира / くじら — Орочимару
Канна Нобутоси / 神奈延年 — Кабуто Якуси
Кацуки Масако / 勝生真沙子 — Цунадэ
Масукава Ёити / 増川洋一 — Рок Ли
Мидзуки Нана / 水樹奈々 — Хината Хьюга
Морикубо Сётаро / 森久保祥太郎 — Шикамару Нара
Оцука Хотю / 大塚芳忠 — Джирайя
Сибата Хидэкацу / 柴田秀勝 — Третий Хокаге
Исикава Хидэо / 石川英郎 — Итачи Учиха
Тотика Койти / 遠近孝一 — Нейджи Хьюга
Описание: "Небьющаяся маска и лопающиеся пузыри"
Наруто отправляется далее по полю боя. Следующим его противником становиться Тоби, который называл себя Мадарой. Тоби обновил внешний вид своей маски. Новой его силой становиться шесть бывших Джинчуурики, которые воскрешены при помощи Эдо-Тенсей, вместо обычных глаз, у них теперь ринненган и шаринган, что делает их более устрашающими. Наруто нападает на Тоби, но Джинчуурики защищают его, не давая Наруто достать его. Перед тем как сразиться с главным врагом, Наруто и Киллеру Би предстоит сразиться с бывшими Джинчуурики. Все воскрешенные теперь совершенно на ином уровне, нежели они были при жизни. Наруто и Киллеру Би предстоит нелегкая битва.
Качество: HDTVRip-AVC
Формат: MKV
Видео кодек: Другой MPEG4
Аудио кодек: MPEG Audio
Видео: AVC,1280x720,1776Kbs,23.976fps
Аудио: MPEG Audio,128 Kbps,44.1KHz,2ch

MediaInfo

General
Unique ID : 210434454538380542026291727959655861692 (0x9E5033A4BFD7DF10B0355471013E4DBC)
Complete name : E:\Films\[RainDeath] Naruto Shippuuden - 324 [720p].mkv
Format : Matroska
Format version : Version 2
File size : 315 MiB
Duration : 23mn 9s
Overall bit rate : 1 900 Kbps
Encoded date : UTC 2013-08-08 13:38:40
Writing application : mkvmerge v2.9.8 ('C'est le bon') built on Aug 13 2009 12:49:06
Writing library : libebml v0.7.7 + libmatroska v0.8.1
Video
ID : 1
Format : AVC
Format/Info : Advanced Video Codec
Format profile : [email protected]
Format settings, CABAC : Yes
Format settings, ReFrames : 6 frames
Codec ID : V_MPEG4/ISO/AVC
Duration : 23mn 9s
Bit rate : 1 776 Kbps
Width : 1 280 pixels
Height : 720 pixels
Display aspect ratio : 16:9
Frame rate mode : Constant
Frame rate : 23.976 fps
Color space : YUV
Chroma subsampling : 4:2:0
Bit depth : 8 bits
Scan type : Progressive
Bits/(Pixel*Frame) : 0.080
Stream size : 287 MiB (91%)
Writing library : x264 core 120 r2120 0c7dab9
Encoding settings : cabac=1 / ref=6 / deblock=1:1:1 / analyse=0x3:0x113 / me=umh / subme=8 / psy=1 / psy_rd=0.40:0.00 / mixed_ref=1 / me_range=16 / chroma_me=1 / trellis=1 / 8x8dct=1 / cqm=0 / deadzone=21,11 / fast_pskip=1 / chroma_qp_offset=-2 / threads=4 / sliced_threads=0 / nr=0 / decimate=1 / interlaced=0 / bluray_compat=0 / constrained_intra=0 / bframes=3 / b_pyramid=2 / b_adapt=2 / b_bias=0 / direct=3 / weightb=1 / open_gop=0 / weightp=2 / keyint=250 / keyint_min=23 / scenecut=40 / intra_refresh=0 / rc_lookahead=50 / rc=2pass / mbtree=1 / bitrate=1776 / ratetol=1.0 / qcomp=0.60 / qpmin=0 / qpmax=69 / qpstep=4 / cplxblur=20.0 / qblur=0.5 / vbv_maxrate=3552 / vbv_bufsize=8880 / nal_hrd=none / ip_ratio=1.40 / aq=1:0.60
Default : No
Forced : No
Audio
ID : 2
Format : MPEG Audio
Format version : Version 1
Format profile : Layer 3
Mode : Joint stereo
Mode extension : MS Stereo
Codec ID : A_MPEG/L3
Codec ID/Hint : MP3
Duration : 23mn 9s
Bit rate mode : Constant
Bit rate : 128 Kbps
Channel(s) : 2 channels
Sampling rate : 44.1 KHz
Compression mode : Lossy
Stream size : 21.2 MiB (7%)
Default : Yes
Forced : No

Скриншоты






Последний раз редактировалось: dreamcetcher (2013-08-10 13:04), всего редактировалось 2 раз(а)

Создавать темы 09-Авг-2013 06:36

[Профиль]  [ЛС] 

dreamcetcher ®

Стаж: 5 лет 10 месяцев

Сообщений: 53

Симпатии: 1

Всех с Праздником!!!

Создавать темы 09-Авг-2013 09:06

[Профиль]  [ЛС] 

Olim98

Стаж: 4 года 5 месяцев

Сообщений: 63

Спасибо, тебя также!!! И спасибо за оперативное выкладывание серий!

Создавать темы 09-Авг-2013 10:46

[Профиль]  [ЛС] 

Kurban

Стаж: 5 лет 7 месяцев

Сообщений: 61

Симпатии: 5

С праздником ребята))

Создавать темы 09-Авг-2013 11:31

[Профиль]  [ЛС] 

dreamcetcher ®

Стаж: 5 лет 10 месяцев

Сообщений: 53

Симпатии: 1

Уважаемые Модераторы у меня три последних релиза все ещё не проверены, вы можете их проверить?

Создавать темы 09-Авг-2013 18:43

[Профиль]  [ЛС] 
Показать сообщения:    
Ответить на тему

Текущее время: 18-Окт 10:54

Часовой пояс: UTC + 5



Вы не можете начинать темы
Вы не можете отвечать на сообщения
Вы не можете редактировать свои сообщения
Вы не можете удалять свои сообщения
Вы не можете голосовать в опросах
Вы не можете прикреплять файлы к сообщениям
Вы не можете скачивать файлы