Формула 1. Сезон 1996 г. Гонки (16 этапов из 16) ["BBC", "RTL5", "Eurosport", "РТР"] VHSRip

Ответить на тему
 

M.J. ®

Стаж: 4 года

Сообщений: 25

Симпатии: 8

Формула 1. Сезон 1996 г.
-Год выпуска: 1996
Вид спорта: Формула 1
Участники: Пилоты королевских гонок
Комментарий: Профессиональный, русский (4, 5 этапы - английский по причине отсутствия русских телетрансляций)
Качество: VHSRip
Видео & Аудио: Media Info под спойлером к каждому этапу-

Этап 1. Гран При Австралии, Мельбурн (10.03.1996 г., "BBC")

-Продолжительность: 02:16:14-Канал: BBC-

Media Info


General
Unique ID : 211473403352383638362646492984916709519 (0x9F184BC6613231B69D16FDCCF0E6108F)
Format : Matroska
Format version : Version 4 / Version 2
File size : 1.79 GiB
Duration : 2h 16mn
Overall bit rate : 1 882 Kbps
Movie name : 1996 Transurban Australian Grand Prix round 1 ru
Encoded date : UTC 2013-03-02 16:04:22
Writing application : mkvmerge v6.0.0 ('Coming Up For Air') built on Jan 20 2013 09:52:00
Writing library : libebml v1.3.0 + libmatroska v1.4.0
Video
ID : 1
Format : AVC
Format/Info : Advanced Video Codec
Format profile : [email protected]
Format settings, CABAC : Yes
Format settings, ReFrames : 3 frames
Codec ID : V_MPEG4/ISO/AVC
Duration : 2h 16mn
Nominal bit rate : 1 765 Kbps
Width : 720 pixels
Height : 576 pixels
Display aspect ratio : 5:4
Original display aspect ratio : 4:3
Frame rate mode : Constant
Frame rate : 25.000 fps
Standard : PAL
Color space : YUV
Chroma subsampling : 4:2:0
Bit depth : 8 bits
Scan type : Progressive
Bits/(Pixel*Frame) : 0.170
Writing library : x264 core 129 r2245 bc13772
Encoding settings : cabac=1 / ref=2 / deblock=1:0:0 / analyse=0x3:0x113 / me=hex / subme=7 / psy=0 / mixed_ref=1 / me_range=16 / chroma_me=1 / trellis=1 / 8x8dct=1 / cqm=0 / deadzone=21,11 / fast_pskip=1 / chroma_qp_offset=0 / threads=6 / lookahead_threads=1 / sliced_threads=0 / nr=0 / decimate=1 / interlaced=0 / bluray_compat=0 / constrained_intra=1 / bframes=4 / b_pyramid=1 / b_adapt=1 / b_bias=0 / direct=1 / weightb=1 / open_gop=0 / weightp=2 / keyint=250 / keyint_min=50 / scenecut=40 / intra_refresh=0 / rc_lookahead=40 / rc=2pass / mbtree=1 / bitrate=1765 / ratetol=1.0 / qcomp=0.60 / qpmin=0 / qpmax=69 / qpstep=4 / cplxblur=20.0 / qblur=0.5 / vbv_maxrate=1765 / vbv_bufsize=1500 / nal_hrd=none / ip_ratio=1.40 / aq=1:1.00
Language : English
Default : Yes
Forced : No
Audio
ID : 2
Format : AAC
Format/Info : Advanced Audio Codec
Format profile : LC
Codec ID : A_AAC
Duration : 2h 16mn
Channel(s) : 2 channels
Channel positions : Front: L R
Sampling rate : 48.0 KHz
Compression mode : Lossy
Language : Russian
Default : Yes
Forced : No
-

Скриншоты





-

Этап 2. Гран При Бразилии, Интерлагос (31.03.1996 г., "BBC")

-Продолжительность: 02:08:21-Канал: BBC-

Media Info


General
Unique ID : 193909840560109031199442714936649581446 (0x91E1AD45B02AEB62A4A4841DC8DE0386)
Format : Matroska
Format version : Version 4 / Version 2
File size : 1.79 GiB
Duration : 2h 8mn
Overall bit rate : 1 999 Kbps
Movie name : 1996 25° Grande Premio do Brasil round 2 ru
Encoded date : UTC 2013-03-02 15:59:11
Writing application : mkvmerge v6.0.0 ('Coming Up For Air') built on Jan 20 2013 09:52:00
Writing library : libebml v1.3.0 + libmatroska v1.4.0
Video
ID : 1
Format : AVC
Format/Info : Advanced Video Codec
Format profile : [email protected]
Format settings, CABAC : Yes
Format settings, ReFrames : 3 frames
Codec ID : V_MPEG4/ISO/AVC
Duration : 2h 8mn
Nominal bit rate : 1 881 Kbps
Width : 720 pixels
Height : 576 pixels
Display aspect ratio : 5:4
Original display aspect ratio : 4:3
Frame rate mode : Constant
Frame rate : 25.000 fps
Standard : PAL
Color space : YUV
Chroma subsampling : 4:2:0
Bit depth : 8 bits
Scan type : Progressive
Bits/(Pixel*Frame) : 0.181
Writing library : x264 core 129 r2245 bc13772
Encoding settings : cabac=1 / ref=2 / deblock=1:0:0 / analyse=0x3:0x113 / me=hex / subme=7 / psy=0 / mixed_ref=1 / me_range=16 / chroma_me=1 / trellis=1 / 8x8dct=1 / cqm=0 / deadzone=21,11 / fast_pskip=1 / chroma_qp_offset=0 / threads=6 / lookahead_threads=1 / sliced_threads=0 / nr=0 / decimate=1 / interlaced=0 / bluray_compat=0 / constrained_intra=1 / bframes=4 / b_pyramid=1 / b_adapt=1 / b_bias=0 / direct=1 / weightb=1 / open_gop=0 / weightp=2 / keyint=250 / keyint_min=50 / scenecut=40 / intra_refresh=0 / rc_lookahead=40 / rc=2pass / mbtree=1 / bitrate=1881 / ratetol=1.0 / qcomp=0.60 / qpmin=0 / qpmax=69 / qpstep=4 / cplxblur=20.0 / qblur=0.5 / vbv_maxrate=1881 / vbv_bufsize=1500 / nal_hrd=none / ip_ratio=1.40 / aq=1:1.00
Language : English
Default : Yes
Forced : No
Audio
ID : 2
Format : AAC
Format/Info : Advanced Audio Codec
Format profile : LC
Codec ID : A_AAC
Duration : 2h 8mn
Channel(s) : 2 channels
Channel positions : Front: L R
Sampling rate : 48.0 KHz
Compression mode : Lossy
Language : Russian
Default : Yes
Forced : No
-

Скриншоты






-

Этап 3. Гран При Аргентины, Буэнос-Айрес (07.04.1996 г., "RTL5", "Eurosport", "PTP")

-Продолжительность: 02:15:15-Канал: RTL5, Eurosport, PTP-

Media Info


General
Unique ID : 177111407379867964140121275696737844579 (0x853E6A92691002458218B8B9E0227D63)
Format : Matroska
Format version : Version 4 / Version 2
File size : 3.57 GiB
Duration : 2h 15mn
Overall bit rate : 3 777 Kbps
Movie name : 1996 Grande Premio Marlboro de Argentina round 3 ru
Encoded date : UTC 2013-06-18 13:48:38
Writing application : mkvmerge v6.2.0 ('Promised Land') built on Apr 28 2013 12:22:01
Writing library : libebml v1.3.0 + libmatroska v1.4.0
Video
ID : 1
Format : AVC
Format/Info : Advanced Video Codec
Format profile : [email protected]
Format settings, CABAC : Yes
Format settings, ReFrames : 5 frames
Codec ID : V_MPEG4/ISO/AVC
Duration : 2h 15mn
Bit rate : 3 445 Kbps
Width : 688 pixels
Height : 562 pixels
Display aspect ratio : 1.224
Original display aspect ratio : 4:3
Frame rate mode : Constant
Frame rate : 50.000 fps
Color space : YUV
Chroma subsampling : 4:2:0
Bit depth : 8 bits
Scan type : Progressive
Bits/(Pixel*Frame) : 0.178
Stream size : 3.26 GiB (91%)
Language : English
Default : Yes
Forced : No
Audio
ID : 2
Format : AC-3
Format/Info : Audio Coding 3
Mode extension : CM (complete main)
Format settings, Endianness : Big
Codec ID : A_AC3
Duration : 2h 15mn
Bit rate mode : Constant
Bit rate : 256 Kbps
Channel(s) : 2 channels
Channel positions : Front: L R
Sampling rate : 48.0 KHz
Bit depth : 16 bits
Compression mode : Lossy
Delay relative to video : 16ms
Stream size : 248 MiB (7%)
Language : Russian
Default : Yes
Forced : No
-

Скриншоты






-

Этап 4. Гран При Европы, Нюрбургринг (28.04.1996 г., "BBC")

-Продолжительность: 01:52:42-Канал: BBC-

Media Info


General
Unique ID : 212760102034100043319858214929149240992 (0xA0101AEAF7F38B118182B737875CA6A0)
Format : Matroska
Format version : Version 4 / Version 2
File size : 1.68 GiB
Duration : 1h 52mn
Overall bit rate : 2 134 Kbps
Movie name : 1996 Grand Prix of Europe round 4 eng
Encoded date : UTC 2013-06-06 16:29:26
Writing application : mkvmerge v6.2.0 ('Promised Land') built on Apr 28 2013 12:22:01
Writing library : libebml v1.3.0 + libmatroska v1.4.0
Video
ID : 1
Format : AVC
Format/Info : Advanced Video Codec
Format profile : [email protected]
Format settings, CABAC : Yes
Format settings, ReFrames : 3 frames
Codec ID : V_MPEG4/ISO/AVC
Duration : 1h 52mn
Width : 720 pixels
Height : 576 pixels
Display aspect ratio : 5:4
Original display aspect ratio : 4:3
Frame rate mode : Constant
Frame rate : 25.000 fps
Standard : PAL
Color space : YUV
Chroma subsampling : 4:2:0
Bit depth : 8 bits
Scan type : Progressive
Language : English
Default : Yes
Forced : No
Audio
ID : 2
Format : AAC
Format/Info : Advanced Audio Codec
Format profile : LC
Codec ID : A_AAC
Duration : 1h 52mn
Channel(s) : 2 channels
Channel positions : Front: L R
Sampling rate : 48.0 KHz
Compression mode : Lossy
Delay relative to video : 16ms
Language : English
Default : Yes
Forced : No
-

Скриншоты




-

Этап 5. Гран При Сан-Марино, Имола (05.05.1996 г., "BBC")

-Продолжительность: 01:55:33-Канал: BBC-

Media Info


General
Unique ID : 215402647395760253414477843279566975240 (0xA20D0A769600CC418AA8ED9FC0BDB108)
Format : Matroska
Format version : Version 4 / Version 2
File size : 1.92 GiB
Duration : 1h 55mn
Overall bit rate : 2 377 Kbps
Movie name : 1996 16° Gran Premio di San Marino round 5 eng
Encoded date : UTC 2013-06-06 16:32:28
Writing application : mkvmerge v6.2.0 ('Promised Land') built on Apr 28 2013 12:22:01
Writing library : libebml v1.3.0 + libmatroska v1.4.0
Video
ID : 1
Format : AVC
Format/Info : Advanced Video Codec
Format profile : [email protected]
Format settings, CABAC : Yes
Format settings, ReFrames : 2 frames
Codec ID : V_MPEG4/ISO/AVC
Duration : 1h 55mn
Bit rate : 2 074 Kbps
Width : 720 pixels
Height : 576 pixels
Display aspect ratio : 5:4
Original display aspect ratio : 4:3
Frame rate mode : Constant
Frame rate : 25.000 fps
Standard : PAL
Color space : YUV
Chroma subsampling : 4:2:0
Bit depth : 8 bits
Scan type : Progressive
Bits/(Pixel*Frame) : 0.200
Stream size : 1.67 GiB (87%)
Language : English
Default : Yes
Forced : No
Audio
ID : 2
Format : AC-3
Format/Info : Audio Coding 3
Mode extension : CM (complete main)
Format settings, Endianness : Big
Codec ID : A_AC3
Duration : 1h 55mn
Bit rate mode : Constant
Bit rate : 256 Kbps
Channel(s) : 2 channels
Channel positions : Front: L R
Sampling rate : 48.0 KHz
Bit depth : 16 bits
Compression mode : Lossy
Delay relative to video : 16ms
Stream size : 212 MiB (11%)
Language : English
Default : Yes
Forced : No
-

Скриншоты






-

Этап 6. Гран При Монако, Монте-Карло (19.05.1996 г., "RTL5", "BBC")

-Продолжительность: 02:19:27-Канал: RTL5, BBC-

Media Info


General
Unique ID : 251453762964876813258319847298984059272 (0xBD2C3BB12DE2A073B884AD003F382188)
Format : Matroska
Format version : Version 4 / Version 2
File size : 3.66 GiB
Duration : 2h 19mn
Overall bit rate : 3 760 Kbps
Movie name : 1996 54 ͤ Grand Prix de Monaco round 6 ru
Encoded date : UTC 2013-06-06 16:36:15
Writing application : mkvmerge v6.2.0 ('Promised Land') built on Apr 28 2013 12:22:01
Writing library : libebml v1.3.0 + libmatroska v1.4.0
Video
ID : 1
Format : AVC
Format/Info : Advanced Video Codec
Format profile : [email protected]
Format settings, CABAC : Yes
Format settings, ReFrames : 5 frames
Codec ID : V_MPEG4/ISO/AVC
Duration : 2h 19mn
Bit rate : 3 429 Kbps
Width : 696 pixels
Height : 564 pixels
Display aspect ratio : 5:4
Original display aspect ratio : 4:3
Frame rate mode : Constant
Frame rate : 50.000 fps
Color space : YUV
Chroma subsampling : 4:2:0
Bit depth : 8 bits
Scan type : Progressive
Bits/(Pixel*Frame) : 0.175
Stream size : 3.34 GiB (91%)
Language : English
Default : Yes
Forced : No
Audio
ID : 2
Format : AC-3
Format/Info : Audio Coding 3
Mode extension : CM (complete main)
Format settings, Endianness : Big
Codec ID : A_AC3
Duration : 2h 19mn
Bit rate mode : Constant
Bit rate : 256 Kbps
Channel(s) : 2 channels
Channel positions : Front: L R
Sampling rate : 48.0 KHz
Bit depth : 16 bits
Compression mode : Lossy
Delay relative to video : 24ms
Stream size : 255 MiB (7%)
Language : Russian
Default : Yes
Forced : No
-

Скриншоты









-

Этап 7. Гран При Испании, Каталунья-Монмело (02.06.1996 г., "BBC", "Eurosport")

-Продолжительность: 02:18:22-Канал: BBC, Eurosport-

Media Info


General
Format : Windows Media
File size : 1.55 GiB
Duration : 2h 18mn
Overall bit rate mode : Variable
Overall bit rate : 1 605 Kbps
Maximum Overall bit rate : 3 580 Kbps
Movie name : F1-1996-07-Spain-Catalunya
Encoded date : UTC 2010-05-08 14:20:21.411
Writing application : 6.0.6002.18005 / Windows Movie Maker
Application : Windows Movie Maker 6.0.6002.18005
Video
ID : 2
Format : VC-1
Format profile : [email protected]
Codec ID : WMV3
Codec ID/Info : Windows Media Video 9
Codec ID/Hint : WMV3
Description of the codec : Windows Media Video 9
Duration : 2h 18mn
Bit rate mode : Variable
Bit rate : 1 523 Kbps
Width : 768 pixels
Height : 576 pixels
Display aspect ratio : 4:3
Frame rate : 25.000 fps
Bit depth : 8 bits
Scan type : Progressive
Compression mode : Lossy
Bits/(Pixel*Frame) : 0.138
Stream size : 1.47 GiB (95%)
Language : English (US)
Audio
ID : 1
Format : WMA
Format version : Version 2
Codec ID : 161
Codec ID/Info : Windows Media Audio
Description of the codec : Windows Media Audio 9.2 - VBR Quality 90, 48 kHz, stereo 1-pass VBR
Duration : 2h 18mn
Bit rate mode : Variable
Bit rate : 103 Kbps
Channel(s) : 2 channels
Sampling rate : 48.0 KHz
Bit depth : 16 bits
Stream size : 102 MiB (6%)
Language : English (US)
-

Скриншоты





-

Этап 8. Гран При Канады, Монреаль (16.06.1996 г., "RTL5", "Eurosport", "PTP", "BBC")

-Продолжительность: 01:55:17-Канал: RTL5, Eurosport, PTP, BBC-

Media Info


General
Unique ID : 193961798675061922129058206152134839251 (0x91EBAF014C34C09E94C6F65F98614BD3)
Format : Matroska
Format version : Version 4 / Version 2
File size : 3.01 GiB
Duration : 1h 55mn
Overall bit rate : 3 743 Kbps
Movie name : 1996 Grand Prix Molson du Canada round 8 ru
Encoded date : UTC 2013-03-03 07:48:19
Writing application : mkvmerge v6.0.0 ('Coming Up For Air') built on Jan 20 2013 09:52:00
Writing library : libebml v1.3.0 + libmatroska v1.4.0
Video
ID : 1
Format : AVC
Format/Info : Advanced Video Codec
Format profile : [email protected]
Format settings, CABAC : Yes
Format settings, ReFrames : 5 frames
Codec ID : V_MPEG4/ISO/AVC
Duration : 1h 55mn
Bit rate : 3 413 Kbps
Width : 694 pixels
Height : 562 pixels
Display aspect ratio : 5:4
Original display aspect ratio : 4:3
Frame rate mode : Constant
Frame rate : 50.000 fps
Color space : YUV
Chroma subsampling : 4:2:0
Bit depth : 8 bits
Scan type : Progressive
Bits/(Pixel*Frame) : 0.175
Stream size : 2.75 GiB (91%)
Language : English
Default : Yes
Forced : No
Audio
ID : 2
Format : AC-3
Format/Info : Audio Coding 3
Mode extension : CM (complete main)
Format settings, Endianness : Big
Codec ID : A_AC3
Duration : 1h 55mn
Bit rate mode : Constant
Bit rate : 256 Kbps
Channel(s) : 2 channels
Channel positions : Front: L R
Sampling rate : 48.0 KHz
Bit depth : 16 bits
Compression mode : Lossy
Delay relative to video : 8ms
Stream size : 211 MiB (7%)
Language : Russian
Default : Yes
Forced : No
-

Скриншоты




-

Этап 9. Гран При Франции, Маньи-Кур (30.06.1996 г., "RTL5")

-Продолжительность: 01:59:47-Канал: RTL5-

Media Info


General
Unique ID : 175696077357888092110021462674808017794 (0x842DD56A0D9E0219ADFBB04992549382)
Format : Matroska
Format version : Version 4 / Version 2
File size : 3.14 GiB
Duration : 1h 59mn
Overall bit rate : 3 759 Kbps
Movie name : 1996 82ͤ Grand Prix de France round 9 ru
Encoded date : UTC 2013-06-06 16:43:10
Writing application : mkvmerge v6.2.0 ('Promised Land') built on Apr 28 2013 12:22:01
Writing library : libebml v1.3.0 + libmatroska v1.4.0
Video
ID : 1
Format : AVC
Format/Info : Advanced Video Codec
Format profile : [email protected]
Format settings, CABAC : Yes
Format settings, ReFrames : 5 frames
Codec ID : V_MPEG4/ISO/AVC
Duration : 1h 59mn
Bit rate : 3 428 Kbps
Width : 694 pixels
Height : 562 pixels
Display aspect ratio : 5:4
Original display aspect ratio : 4:3
Frame rate mode : Constant
Frame rate : 50.000 fps
Color space : YUV
Chroma subsampling : 4:2:0
Bit depth : 8 bits
Scan type : Progressive
Bits/(Pixel*Frame) : 0.176
Stream size : 2.87 GiB (91%)
Language : English
Default : Yes
Forced : No
Audio
ID : 2
Format : AC-3
Format/Info : Audio Coding 3
Mode extension : CM (complete main)
Format settings, Endianness : Big
Codec ID : A_AC3
Duration : 1h 59mn
Bit rate mode : Constant
Bit rate : 256 Kbps
Channel(s) : 2 channels
Channel positions : Front: L R
Sampling rate : 48.0 KHz
Bit depth : 16 bits
Compression mode : Lossy
Delay relative to video : 8ms
Stream size : 219 MiB (7%)
Language : Russian
Default : Yes
Forced : No
-

Скриншоты








-

Этап 10. Гран При Великобритании, Силверстоун (14.07.1996 г., "RTL5", "BBC")

-Продолжительность: 01:54:49-Канал: RTL5, BBC-

Media Info


General
Unique ID : 237236633661596380184018857517200531937 (0xB27A1D194F5984C0BA56EF64BF7561E1)
Format : Matroska
Format version : Version 4 / Version 2
File size : 3.03 GiB
Duration : 1h 54mn
Overall bit rate : 3 773 Kbps
Movie name : 1996 British Grand Prix round 10 ru
Encoded date : UTC 2013-06-06 16:47:52
Writing application : mkvmerge v6.2.0 ('Promised Land') built on Apr 28 2013 12:22:01
Writing library : libebml v1.3.0 + libmatroska v1.4.0
Video
ID : 1
Format : AVC
Format/Info : Advanced Video Codec
Format profile : [email protected]
Format settings, CABAC : Yes
Format settings, ReFrames : 5 frames
Codec ID : V_MPEG4/ISO/AVC
Duration : 1h 54mn
Bit rate : 3 442 Kbps
Width : 690 pixels
Height : 562 pixels
Display aspect ratio : 4:3
Frame rate mode : Constant
Frame rate : 50.000 fps
Color space : YUV
Chroma subsampling : 4:2:0
Bit depth : 8 bits
Scan type : Progressive
Bits/(Pixel*Frame) : 0.178
Stream size : 2.76 GiB (91%)
Language : English
Default : Yes
Forced : No
Audio
ID : 2
Format : AC-3
Format/Info : Audio Coding 3
Mode extension : CM (complete main)
Format settings, Endianness : Big
Codec ID : A_AC3
Duration : 1h 54mn
Bit rate mode : Constant
Bit rate : 256 Kbps
Channel(s) : 2 channels
Channel positions : Front: L R
Sampling rate : 48.0 KHz
Bit depth : 16 bits
Compression mode : Lossy
Delay relative to video : 8ms
Stream size : 210 MiB (7%)
Language : Russian
Default : Yes
Forced : No
-

Скриншоты






-

Этап 11. Гран При Германии, Хокенхайм (28.07.1996 г., "BBC")

-Продолжительность: 01:39:07-Канал: BBC-

Media Info


General
Unique ID : 197454637640418150540846116815456816246 (0x948C61430695336AB7E346DA6A79CC76)
Format : Matroska
Format version : Version 4 / Version 2
File size : 1.69 GiB
Duration : 1h 39mn
Overall bit rate : 2 448 Kbps
Movie name : 1996 Grosser Mobil 1 Preis von Deutschland round 11 ru
Encoded date : UTC 2013-06-06 16:51:56
Writing application : mkvmerge v6.2.0 ('Promised Land') built on Apr 28 2013 12:22:01
Writing library : libebml v1.3.0 + libmatroska v1.4.0
Video
ID : 1
Format : AVC
Format/Info : Advanced Video Codec
Format profile : [email protected]
Format settings, CABAC : Yes
Format settings, ReFrames : 3 frames
Codec ID : V_MPEG4/ISO/AVC
Duration : 1h 39mn
Width : 720 pixels
Height : 576 pixels
Display aspect ratio : 5:4
Original display aspect ratio : 4:3
Frame rate mode : Constant
Frame rate : 25.000 fps
Standard : PAL
Color space : YUV
Chroma subsampling : 4:2:0
Bit depth : 8 bits
Scan type : Progressive
Language : English
Default : Yes
Forced : No
Audio
ID : 2
Format : AAC
Format/Info : Advanced Audio Codec
Format profile : LC
Codec ID : A_AAC
Duration : 1h 39mn
Channel(s) : 2 channels
Channel positions : Front: L R
Sampling rate : 48.0 KHz
Compression mode : Lossy
Delay relative to video : 13ms
Language : Russian
Default : Yes
Forced : No
-

Скриншоты








-

Этап 12. Гран При Венгрии, Хунгароринг (11.08.1996 г., "BBC")

-Продолжительность: 02:02:59-Канал: BBC-

Media Info


General
Unique ID : 240710564822765701266500405843541192311 (0xB5172B20FF609BB8B4EA64713AD56E77)
Format : Matroska
Format version : Version 4 / Version 2
File size : 1.96 GiB
Duration : 2h 2mn
Overall bit rate : 2 284 Kbps
Movie name : 1996 Marlboro Magyar Nagydij round 12 ru
Encoded date : UTC 2013-06-06 16:54:49
Writing application : mkvmerge v6.2.0 ('Promised Land') built on Apr 28 2013 12:22:01
Writing library : libebml v1.3.0 + libmatroska v1.4.0
Video
ID : 1
Format : AVC
Format/Info : Advanced Video Codec
Format profile : [email protected]
Format settings, CABAC : Yes
Format settings, ReFrames : 3 frames
Codec ID : V_MPEG4/ISO/AVC
Duration : 2h 2mn
Bit rate : 1 982 Kbps
Width : 720 pixels
Height : 576 pixels
Display aspect ratio : 5:4
Original display aspect ratio : 4:3
Frame rate mode : Constant
Frame rate : 25.000 fps
Standard : PAL
Color space : YUV
Chroma subsampling : 4:2:0
Bit depth : 8 bits
Scan type : Progressive
Bits/(Pixel*Frame) : 0.191
Stream size : 1.70 GiB (87%)
Language : English
Default : Yes
Forced : No
Audio
ID : 2
Format : AC-3
Format/Info : Audio Coding 3
Mode extension : CM (complete main)
Format settings, Endianness : Big
Codec ID : A_AC3
Duration : 2h 2mn
Bit rate mode : Constant
Bit rate : 256 Kbps
Channel(s) : 2 channels
Channel positions : Front: L R
Sampling rate : 48.0 KHz
Bit depth : 16 bits
Compression mode : Lossy
Delay relative to video : 24ms
Stream size : 225 MiB (11%)
Language : Russian
Default : Yes
Forced : No
-

Скриншоты









-

Этап 13. Гран При Бельгии, Спа-Франкоршам (25.08.1996 г., "BBC")

-Продолжительность: 01:46:43-Канал: BBC-

Media Info


General
Unique ID : 174791189201701576069589244437174594520 (0x837F8EFBD01FAA84AAAB8B8DDE9EABD8)
Format : Matroska
Format version : Version 4 / Version 2
File size : 1.92 GiB
Duration : 1h 46mn
Overall bit rate : 2 579 Kbps
Movie name : 1996 Belgian Grand Prix round 13 ru
Encoded date : UTC 2013-06-06 16:57:14
Writing application : mkvmerge v6.2.0 ('Promised Land') built on Apr 28 2013 12:22:01
Writing library : libebml v1.3.0 + libmatroska v1.4.0
Video
ID : 1
Format : AVC
Format/Info : Advanced Video Codec
Format profile : [email protected]
Format settings, CABAC : Yes
Format settings, ReFrames : 3 frames
Codec ID : V_MPEG4/ISO/AVC
Duration : 1h 46mn
Bit rate : 2 271 Kbps
Width : 720 pixels
Height : 576 pixels
Display aspect ratio : 5:4
Original display aspect ratio : 4:3
Frame rate mode : Constant
Frame rate : 25.000 fps
Standard : PAL
Color space : YUV
Chroma subsampling : 4:2:0
Bit depth : 8 bits
Scan type : Progressive
Bits/(Pixel*Frame) : 0.219
Stream size : 1.69 GiB (88%)
Language : English
Default : Yes
Forced : No
Audio
ID : 2
Format : AC-3
Format/Info : Audio Coding 3
Mode extension : CM (complete main)
Format settings, Endianness : Big
Codec ID : A_AC3
Duration : 1h 46mn
Bit rate mode : Constant
Bit rate : 256 Kbps
Channel(s) : 2 channels
Channel positions : Front: L R
Sampling rate : 48.0 KHz
Bit depth : 16 bits
Compression mode : Lossy
Stream size : 195 MiB (10%)
Language : Russian
Default : Yes
Forced : No
-

Скриншоты







-

Этап 14. Гран При Италии, Монца (08.09.1996 г., "BBC")

-Продолжительность: 01:41:26-Канал: BBC-

Media Info


General
Unique ID : 222324789151251429063919272174530426379 (0xA7423266C44EE0FD987210614D85760B)
Format : Matroska
Format version : Version 4 / Version 2
File size : 1.73 GiB
Duration : 1h 41mn
Overall bit rate : 2 444 Kbps
Movie name : 1996 67° Pioneer Gran Premio d'Italia round 14 ru
Encoded date : UTC 2013-06-06 17:00:10
Writing application : mkvmerge v6.2.0 ('Promised Land') built on Apr 28 2013 12:22:01
Writing library : libebml v1.3.0 + libmatroska v1.4.0
Video
ID : 1
Format : AVC
Format/Info : Advanced Video Codec
Format profile : [email protected]
Format settings, CABAC : Yes
Format settings, ReFrames : 3 frames
Codec ID : V_MPEG4/ISO/AVC
Duration : 1h 41mn
Width : 720 pixels
Height : 576 pixels
Display aspect ratio : 5:4
Original display aspect ratio : 4:3
Frame rate mode : Constant
Frame rate : 25.000 fps
Standard : PAL
Color space : YUV
Chroma subsampling : 4:2:0
Bit depth : 8 bits
Scan type : Progressive
Language : English
Default : Yes
Forced : No
Audio
ID : 2
Format : AAC
Format/Info : Advanced Audio Codec
Format profile : LC
Codec ID : A_AAC
Duration : 1h 41mn
Channel(s) : 2 channels
Channel positions : Front: L R
Sampling rate : 48.0 KHz
Compression mode : Lossy
Delay relative to video : 5ms
Language : Russian
Default : Yes
Forced : No
-

Скриншоты






-

Этап 15. Гран При Португалии, Эшторил (22.09.1996 г., "BBC")

-Продолжительность: 01:57:39-Канал: BBC-

Media Info


General
Unique ID : 241930391459388785061801338976399708566 (0xB6021939B6CAFD808E91B0A3F06ED196)
Format : Matroska
Format version : Version 4 / Version 2
File size : 1.70 GiB
Duration : 1h 57mn
Overall bit rate : 2 066 Kbps
Movie name : 1996 Grande Premio de Portugal round 15 ru
Encoded date : UTC 2013-06-06 17:03:56
Writing application : mkvmerge v6.2.0 ('Promised Land') built on Apr 28 2013 12:22:01
Writing library : libebml v1.3.0 + libmatroska v1.4.0
Video
ID : 1
Format : AVC
Format/Info : Advanced Video Codec
Format profile : [email protected]
Format settings, CABAC : Yes
Format settings, ReFrames : 3 frames
Codec ID : V_MPEG4/ISO/AVC
Duration : 1h 57mn
Width : 720 pixels
Height : 576 pixels
Display aspect ratio : 5:4
Original display aspect ratio : 4:3
Frame rate mode : Constant
Frame rate : 25.000 fps
Standard : PAL
Color space : YUV
Chroma subsampling : 4:2:0
Bit depth : 8 bits
Scan type : Progressive
Language : English
Default : Yes
Forced : No
Audio
ID : 2
Format : AAC
Format/Info : Advanced Audio Codec
Format profile : LC
Codec ID : A_AAC
Duration : 1h 57mn
Channel(s) : 2 channels
Channel positions : Front: L R
Sampling rate : 48.0 KHz
Compression mode : Lossy
Delay relative to video : 3ms
Language : Russian
Default : Yes
Forced : No
-

Скриншоты







-

Этап 16. Гран При Японии, Судзука (13.10.1996 г., "BBC")

-Продолжительность: 02:02:52-Канал: BBC-

Media Info


General
Unique ID : 171344075617395244898684465829798376668 (0x80E7AB2988614AD1BD2CC708664E74DC)
Format : Matroska
Format version : Version 4 / Version 2
File size : 1.69 GiB
Duration : 2h 2mn
Overall bit rate : 1 965 Kbps
Movie name : 1996 Fuji Television Japanese Grand Prix round 16 ru
Encoded date : UTC 2013-06-06 17:07:42
Writing application : mkvmerge v6.2.0 ('Promised Land') built on Apr 28 2013 12:22:01
Writing library : libebml v1.3.0 + libmatroska v1.4.0
Video
ID : 1
Format : AVC
Format/Info : Advanced Video Codec
Format profile : [email protected]
Format settings, CABAC : Yes
Format settings, ReFrames : 3 frames
Codec ID : V_MPEG4/ISO/AVC
Duration : 2h 2mn
Width : 720 pixels
Height : 576 pixels
Display aspect ratio : 5:4
Original display aspect ratio : 4:3
Frame rate mode : Constant
Frame rate : 25.000 fps
Standard : PAL
Color space : YUV
Chroma subsampling : 4:2:0
Bit depth : 8 bits
Scan type : Progressive
Language : English
Default : Yes
Forced : No
Audio
ID : 2
Format : AAC
Format/Info : Advanced Audio Codec
Format profile : LC
Codec ID : A_AAC
Duration : 2h 2mn
Channel(s) : 2 channels
Channel positions : Front: L R
Sampling rate : 48.0 KHz
Compression mode : Lossy
Delay relative to video : 16ms
Language : Russian
Default : Yes
Forced : No
-

Скриншоты









-


Последний раз редактировалось: M.J. (2013-08-21 00:10), всего редактировалось 1 раз

Создавать темы 09-Авг-2013 18:03

[Профиль]  [ЛС] 
Показать сообщения:    
Ответить на тему

Текущее время: 21-Авг 04:16

Часовой пояс: UTC + 5



Вы не можете начинать темы
Вы не можете отвечать на сообщения
Вы не можете редактировать свои сообщения
Вы не можете удалять свои сообщения
Вы не можете голосовать в опросах
Вы не можете прикреплять файлы к сообщениям
Вы не можете скачивать файлы