Обливион / Oblivion (Джозеф Косински / Joseph Kosinski) [2013, Фантастика, боевик, триллер, приключения, антиутопия, BDRip-AVC, Dub] [лицензия]

Ответить на тему
 

Almashina ®

Стаж: 5 лет 10 месяцев

Сообщений: 26

Симпатии: 7

Обливион / Oblivion- Страна: США, Chernin Entertainment, Ironhead Studios, Radical Pictures, Radical Studios, Truenorth Productions, Universal Pictures
Жанр: Фантастика, боевик, триллер, приключения, антиутопия
Год выпуска: 2013
Продолжительность: 02:04:42
Перевод: Профессиональный (дублированный) [Лицензия]
Субтитры: нет
Оригинальная дорожка: нет
Главы: есть
Режиссер: Джозеф Косински / Joseph Kosinski
В ролях: Том Круз, Ольга Куриленко, Морган Фримен, Андреа Райзборо, Николай Костер-Валдау, Мелисса Лео, Зои Белл, Эбигейл Лоу, Изабель Лоу, Дэвид Мэдисон-Описание: Можно ли скучать по месту, в котором никогда не был, мечтать о девушке, которую никогда не видел? Добро пожаловать в будущее! Мы больше не можем называть Землю своим домом. Мы выиграли войну, но не смогли сохранить планету…-IMDB | Кинопоиск-Качество видео: BDRip-AVC (энкод L)
Формат видео: MKV
Видео: AVC / [email protected]L4.1 / 960 x 402 / 1 219 Kbps / 2.40:1
Аудио: Russian: 48 kHz, AC3 Dolby Digital, 3/2 (L,C,R,l,r) + LFE ch, ~448 kbps

Оригинальная раздача на rutracker.org

http://rutracker.org/forum/viewtopic.php?t=4495805

MediaInfo

Общее
Уникальный идентификатор                 : 197534750779065063262768816839112557173 (0x949BCF24FEB0B322A156B685F35C8275)
Полное имя                               : D:\25Kadr\Oblivion.2013.Bluray.x264.ac3.rus.by.L.mkv
Формат                                   : Matroska
Версия формата                           : Version 2
Размер файла                             : 1,45 Гбайт
Продолжительность                        : 2 ч. 4 м.
Общий поток                              : 1669 Кбит/сек
Название фильма                          : Обливион / Oblivion [2013 г.] | Рип от L | Unionpeer
Дата кодирования                         : UTC 2013-08-06 06:13:38
Программа кодирования                    : mkvmerge v3.2.0 ('Beginnings') built on Feb 12 2010 16:46:17
Библиотека кодирования                   : libebml v0.7.9 + libmatroska v0.8.1
Видео
Идентификатор                            : 1
Формат                                   : AVC
Формат/Информация                        : Advanced Video Codec
Профиль формата                          : [email protected]
Параметр CABAC формата                   : Да
Параметр ReFrames формата                : 12 кадров
Идентификатор кодека                     : V_MPEG4/ISO/AVC
Продолжительность                        : 2 ч. 4 м.
Битрейт                                  : 1219 Кбит/сек
Ширина                                   : 960 пикселей
Высота                                   : 402 пикселя
Соотношение сторон                       : 2,40:1
Режим частоты кадров                     : Постоянный
Частота кадров                           : 23,976 кадра/сек
Цветовое пространство                    : YUV
Субдискретизация насыщенности            : 4:2:0
Битовая глубина                          : 8 бит
Тип развёртки                            : Прогрессивная
Бит/(Пиксели*Кадры)                      : 0.132
Размер потока                            : 1,03 Гбайт (71%)
Библиотека кодирования                   : x264 core 133 r2334 a3ac64b
Настройки программы                      : cabac=1 / ref=12 / deblock=1:-2:-1 / analyse=0x3:0x133 / me=umh / subme=11 / psy=1 / psy_rd=1.10:0.10 / mixed_ref=1 / me_range=32 / chroma_me=1 / trellis=2 / 8x8dct=1 / cqm=0 / deadzone=21,11 / fast_pskip=0 / chroma_qp_offset=-4 / threads=6 / lookahead_threads=1 / sliced_threads=0 / nr=0 / decimate=1 / interlaced=0 / bluray_compat=0 / constrained_intra=0 / bframes=13 / b_pyramid=2 / b_adapt=2 / b_bias=0 / direct=3 / weightb=1 / open_gop=0 / weightp=2 / keyint=230 / keyint_min=21 / scenecut=40 / intra_refresh=0 / rc_lookahead=0 / rc=2pass / mbtree=0 / bitrate=1219 / ratetol=1.0 / qcomp=0.70 / qpmin=0 / qpmax=69 / qpstep=4 / cplxblur=20.0 / qblur=0.5 / vbv_maxrate=50000 / vbv_bufsize=62500 / nal_hrd=none / ip_ratio=1.35 / pb_ratio=1.25 / aq=2:0.90
Язык                                     : English
Default                                  : Нет
Forced                                   : Нет
Аудио
Идентификатор                            : 2
Формат                                   : AC-3
Формат/Информация                        : Audio Coding 3
Расширение режима                        : CM (complete main)
Параметр Endianness формата              : Big
Идентификатор кодека                     : A_AC3
Продолжительность                        : 2 ч. 4 м.
Вид битрейта                             : Постоянный
Битрейт                                  : 448 Кбит/сек
Каналы                                   : 5 каналов
Расположение каналов                     : Front: L C R, Side: L R
Частота                                  : 48,0 КГц
Битовая глубина                          : 16 бит
Метод сжатия                             : С потерями
Размер потока                            : 400 Мбайт (27%)
Заголовок                                : Дубляж
Язык                                     : Russian
Default                                  : Да
Forced                                   : Нет
Меню
00:00:00.000                             : en:00:00:00.000
00:04:31.354                             : en:00:04:31.354
00:12:51.813                             : en:00:12:51.813
00:21:25.284                             : en:00:21:25.284
00:27:20.138                             : en:00:27:20.138
00:35:30.337                             : en:00:35:30.337
00:40:06.779                             : en:00:40:06.779
00:46:16.023                             : en:00:46:16.023
00:52:22.181                             : en:00:52:22.181
01:01:59.716                             : en:01:01:59.716
01:07:59.409                             : en:01:07:59.409
01:16:25.831                             : en:01:16:25.831
01:22:08.173                             : en:01:22:08.173
01:25:31.752                             : en:01:25:31.752
01:30:22.542                             : en:01:30:22.542
01:36:30.368                             : en:01:36:30.368
01:40:29.106                             : en:01:40:29.106
01:46:27.423                             : en:01:46:27.423
01:53:05.320                             : en:01:53:05.320
01:58:23.847                             : en:01:58:23.847

Скриншоты





Создавать темы 09-Авг-2013 20:34

[Профиль]  [ЛС] 

Almashina ®

Стаж: 5 лет 10 месяцев

Сообщений: 26

Симпатии: 7

Inobat, я в курсе существования того релиза. Выражайтесь яснее, чтоли.
All, сорри, пока пытаюсь заставить торрент раздавать (узонлайен).
UPD Вроде пошло.

Создавать темы 09-Авг-2013 22:21

[Профиль]  [ЛС] 

janrok

Стаж: 5 лет 6 месяцев

Сообщений: 290

Симпатии: 27

размер глянь разница есть же так что это не повтор и чем меньше тем лучше меньше качать

Создавать темы 09-Авг-2013 22:29

[Профиль]  [ЛС] 

Almashina ®

Стаж: 5 лет 10 месяцев

Сообщений: 26

Симпатии: 7

Здесь выше разрешение => лучше качество. Размер меньше, за счёт использования кодека AVC.

Создавать темы 09-Авг-2013 22:43

[Профиль]  [ЛС] 

Monroe

Стаж: 4 года 3 месяца

Сообщений: 220

Симпатии: 62

А что значит (энкод L) ???

Создавать темы 27-Авг-2013 10:26

[Профиль]  [ЛС] 

Almashina ®

Стаж: 5 лет 10 месяцев

Сообщений: 26

Симпатии: 7

Это значит, что автор рипа - камрад L' с рутрекера, его профиль . То есть "авторство кодирования видео с BD - тов. L'".

Создавать темы 27-Авг-2013 23:00

[Профиль]  [ЛС] 
Показать сообщения:    
Ответить на тему

Текущее время: 20-Сен 00:06

Часовой пояс: UTC + 5



Вы не можете начинать темы
Вы не можете отвечать на сообщения
Вы не можете редактировать свои сообщения
Вы не можете удалять свои сообщения
Вы не можете голосовать в опросах
Вы не можете прикреплять файлы к сообщениям
Вы не можете скачивать файлы