Ип Ман Трилогия - Ip Man Trilogy (Вилсон Йип, Херман Яу) [2008-2010г.г, Боевик / Драма / Биография / История, BDRip]

Страницы :  1, 2  След.

Ответить на тему
 

Kubaev_Muhiddin ®

Стаж: 6 лет 9 месяцев

Сообщений: 104

Симпатии: 34

Ип Ман / Ip Man
Год выпуска: 2008
Страна: Китай-Гонконг
Жанр: Боевик / Драма / Биография / История
Продолжительность: 01:46:21
Перевод: Профессиональный (Авторский, Одноголосый, Двухголосый закадровый)
Режиссер: Вилсон Йип
Премьера в мире: 12 декабря 2008
В ролях: Донни Йен, Саймон Ям, Сю-Вонг Фан, Ка Танг Лам, Ю Хин, Чен Зи <~~>, Саммо Хунг Кам-Бо, Хироюки Икеучи, Малика Шерават
Описание: Ип Ман — признанный мастер кунг фу, живущий в Фуошане, городе, славном своими школами боевых искусств. Ип Ман практикует Вин Чун и хотя является сильнейшим бойцом города, своей школы у него нет, и он не берет учеников. Дома он проводит лишь легкие спарринги с приятелями, что бы указать на ошибки друг друга. Проходят годы, Китай захватывают воинственные японцы, и Ип Ман оказывается одним из немногих, кто даже в жесточайших условиях оккупации не забывает о чести, достоинстве и, конечно же, мудрости, которую несет в себе кунг фу.
Качество: BDRip
Формат: MKV
Видео кодек: V_MPEG4/ISO/AVC (Advanced Video Codec)
Аудио кодек: AC-3
Видео: MPEG4 Video (H264) 1280x544 24 fps 3 040 kbps
Аудио #1: Dolby AC3 48000 Hz 6ch. 384 kbps Авторский (Сербин) (Russian)
Аудио #2: Dolby AC3 48000 Hz 6ch. 384 kbps Одноголосый (CinemaSET) (Russian)
Аудио #3: Dolby AC3 48000 Hz 6ch. 384 kbps Двухголосый закадровый (Russian)
Аудио #4: Dolby AC3 48000 Hz 6ch. 384 kbps Original (Chinese)
Cубтитр #1: S_TEXT/UTF-8 Plain Text (Russian)
Cубтитр #2: S_TEXT/UTF-8 Plain Text (English)

Медиа инфо

Video
ID : 1
Format : AVC
Format/Info : Advanced Video Codec
Format profile : [email protected]
Format settings, CABAC : Yes
Format settings, ReFrames : 10 frames
Codec ID : V_MPEG4/ISO/AVC
Duration : 1h 46mn
Bit rate mode : Variable
Bit rate : 3 040 Kbps
Maximum bit rate : 40.0 Mbps
Width : 1 280 pixels
Height : 544 pixels
Display aspect ratio : 2.35:1
Frame rate mode : Constant
Frame rate : 24.000 fps
Color space : YUV
Chroma subsampling : 4:2:0
Bit depth : 8 bits
Scan type : Progressive
Bits/(Pixel*Frame) : 0.182
Stream size : 2.19 GiB (64%)
Title : Ип Ман / Yip Man / Ip Man (2008) BDRip-AVC
Writing library : x264 core 80 r1376M 3feaec2
Encoding settings : cabac=1 / ref=10 / deblock=1:-2:-1 / analyse=0x3:0x113 / me=umh / subme=10 / psy=1 / psy_rd=0.9:0.2 / mixed_ref=1 / me_range=32 / chroma_me=1 / trellis=2 / 8x8dct=1 / cqm=0 / deadzone=21,11 / fast_pskip=1 / chroma_qp_offset=-3 / threads=3 / sliced_threads=0 / slices=4 / nr=0 / decimate=1 / mbaff=0 / constrained_intra=0 / bframes=10 / b_pyramid=2 / b_adapt=2 / b_bias=0 / direct=1 / wpredb=1 / wpredp=2 / keyint=250 / keyint_min=25 / scenecut=40 / rc_lookahead=40 / rc=2pass / mbtree=1 / bitrate=3040 / ratetol=1.0 / qcomp=0.65 / qpmin=10 / qpmax=51 / qpstep=4 / cplxblur=20.0 / qblur=0.5 / vbv_maxrate=40000 / vbv_bufsize=30000 / ip_ratio=1.40 / aq=1:1.00
Default : No
Forced : No
Audio #1
ID : 2
Format : AC-3
Format/Info : Audio Coding 3
Mode extension : CM (complete main)
Format settings, Endianness : Big
Codec ID : A_AC3
Duration : 1h 46mn
Bit rate mode : Constant
Bit rate : 384 Kbps
Channel(s) : 6 channels
Channel positions : Front: L C R, Side: L R, LFE
Sampling rate : 48.0 KHz
Bit depth : 16 bits
Compression mode : Lossy
Stream size : 292 MiB (8%)
Title : Авторский (Сербин)
Language : Russian
Default : Yes
Forced : No
Audio #2
ID : 3
Format : AC-3
Format/Info : Audio Coding 3
Mode extension : CM (complete main)
Format settings, Endianness : Big
Codec ID : A_AC3
Duration : 1h 46mn
Bit rate mode : Constant
Bit rate : 384 Kbps
Channel(s) : 6 channels
Channel positions : Front: L C R, Side: L R, LFE
Sampling rate : 48.0 KHz
Bit depth : 16 bits
Compression mode : Lossy
Stream size : 292 MiB (8%)
Title : Одноголосый (CinemaSET)
Language : Russian
Default : No
Forced : No
Audio #3
ID : 4
Format : AC-3
Format/Info : Audio Coding 3
Mode extension : CM (complete main)
Format settings, Endianness : Big
Codec ID : A_AC3
Duration : 1h 46mn
Bit rate mode : Constant
Bit rate : 384 Kbps
Channel(s) : 6 channels
Channel positions : Front: L C R, Side: L R, LFE
Sampling rate : 48.0 KHz
Bit depth : 16 bits
Compression mode : Lossy
Stream size : 292 MiB (8%)
Title : Двухголосый закадровый
Language : Russian
Default : No
Forced : No
Audio #4
ID : 5
Format : AC-3
Format/Info : Audio Coding 3
Mode extension : CM (complete main)
Format settings, Endianness : Big
Codec ID : A_AC3
Duration : 1h 46mn
Bit rate mode : Constant
Bit rate : 384 Kbps
Channel(s) : 6 channels
Channel positions : Front: L C R, Side: L R, LFE
Sampling rate : 48.0 KHz
Bit depth : 16 bits
Compression mode : Lossy
Stream size : 292 MiB (8%)
Title : Оригинал
Language : Chinese
Default : No
Forced : No
Text #1
ID : 6
Format : UTF-8
Codec ID : S_TEXT/UTF8
Codec ID/Info : UTF-8 Plain Text
Title : Русские
Language : Russian
Default : No
Forced : No
Text #2
ID : 7
Format : UTF-8
Codec ID : S_TEXT/UTF8
Codec ID/Info : UTF-8 Plain Text
Title : Английские
Language : English
Default : No
Forced : No

Скриншоты



Ип Ман 2 / Ip Man 2
Год выпуска: 2010
Страна: Гонконг, Henan Film & TV Production Group Henan Film Studio, Mandarin Films Distribution Co., Beijing ShengShi HuaRei Film Investment & Management Co.
Жанр: Боевик / Драма / Биография / История
Продолжительность: 01:47:50
Перевод: Профессиональный (многоголосый, закадровый)
Режиссер: Вилсон Йип
Премьера в мире: 29 апреля 2010
В ролях: Донни Йен, Линн Хунг, Саймон Ям, Саммо Хунг Кам-Бо, Хуан Сяомин, Фан Сю-Вонг, Кент Чэн, Даррен Шахлави, Брюс Блэйн, Эмбер Чиа
Описание: Фильм, в отличие от первой части — «Ип Ман» — удаляется значительно дальше от реальной биографии Ип Мана. В этом фильме Ип Ман выступает в качестве защитника чести китайских боевых искусств перед английским боксом.
Вторая Мировая война закончилась, но Китай все ещё слаб и беден. В 1949 году в Гонконге Ип Ман открывает школу Вин чун, однако завоевать свое место под солнцем оказывается непросто — чтобы избежать проблем, Ип Ману нужно сначала завоевать уважение представителей других кунгфу-школ, а председательствующему в их ассоциации Хун Чун Нам(мастеру стиля Хун Гар), Ип Ман не понравился с первого взгляда. Тем временем в Гонконге усиливается присутствие британцев, и некоторые из них плевать хотели на китайские традиции и обычаи…
Качество: BDRip
Формат: MKV
Видео кодек: V_MPEG4/ISO/AVC (Advanced Video Codec)
Аудио кодек: DTS (Digital Theater Systems)
Видео: MPEG4 Video (H264) 1280x544 23.976fps 4 134 kbps
Аудио: DTS 48000 Hz 6ch. 1 509 kbps (Russian)
Cубтитр: S_VOBSUB (Chinese)

Медиа инфо

Video
ID : 1
Format : AVC
Format/Info : Advanced Video Codec
Format profile : [email protected]
Format settings, CABAC : Yes
Format settings, ReFrames : 4 frames
Codec ID : V_MPEG4/ISO/AVC
Duration : 1h 47mn
Bit rate : 4 134 Kbps
Width : 1 280 pixels
Height : 544 pixels
Display aspect ratio : 2.35:1
Frame rate mode : Constant
Frame rate : 23.976 fps
Color space : YUV
Chroma subsampling : 4:2:0
Bit depth : 8 bits
Scan type : Progressive
Bits/(Pixel*Frame) : 0.248
Stream size : 3.03 GiB (71%)
Writing library : x264 core 92 r1510 33d382a
Encoding settings : cabac=1 / ref=4 / deblock=1:0:0 / analyse=0x3:0x113 / me=umh / subme=9 / psy=1 / psy_rd=1.00:0.00 / mixed_ref=1 / me_range=16 / chroma_me=1 / trellis=0 / 8x8dct=1 / cqm=0 / deadzone=21,11 / fast_pskip=1 / chroma_qp_offset=-2 / threads=6 / sliced_threads=0 / nr=0 / decimate=1 / interlaced=0 / constrained_intra=0 / bframes=4 / b_pyramid=2 / b_adapt=2 / b_bias=0 / direct=3 / wpredb=1 / wpredp=2 / keyint=250 / keyint_min=25 / scenecut=40 / intra_refresh=0 / rc_lookahead=40 / rc=2pass / mbtree=1 / bitrate=4134 / ratetol=1.0 / qcomp=0.60 / qpmin=10 / qpmax=51 / qpstep=4 / cplxblur=20.0 / qblur=0.5 / ip_ratio=1.40 / aq=1:1.00
Default : Yes
Forced : No
Audio
ID : 2
Format : DTS
Format/Info : Digital Theater Systems
Mode : 16
Format settings, Endianness : Big
Codec ID : A_DTS
Duration : 1h 47mn
Bit rate mode : Constant
Bit rate : 1 509 Kbps
Channel(s) : 6 channels
Channel positions : Front: L C R, Side: L R, LFE
Sampling rate : 48.0 KHz
Bit depth : 24 bits
Compression mode : Lossy
Stream size : 1.14 GiB (27%)
Language : Russian
Default : Yes
Forced : No
Text
ID : 3
Format : VobSub
Muxing mode : zlib
Codec ID : S_VOBSUB
Codec ID/Info : The same subtitle format used on DVDs
Language : Chinese
Default : No
Forced : No

Скриншоты



Ип Ман Рождение легенды / The legend is born Ip Man
Год выпуска: 2010
Страна: Гонконг
Жанр: Боевик / Драма / Биография / История
Продолжительность: 01:39:42
Перевод: Профессиональный (многоголосый, закадровый)
Режиссер: Херман Яу
Продюссер: Син Квок Лам, Куо Синг Ли
Сценарий: Эрика Ли, Шон Уитли
Премьера в мире: 24 июня 2010 Гонконг, 17 марта 2012 Япония
В ролях: Ю-Ханг То, Фан Сю-Вонг, Саммо Хунг Кам-Бо, Хуанг И, Роуз Чан, Ип Чун, Чен Зи <~~>, Сует Лам, Сир Ма
Описание: В детстве Ип Ман вместе со своим братом Е Тяньцы и младшей ученицей Ли Мэйхуэй учился боевым искусствам у известного мастера вин-чун Чэнь Хуашуня в городе Фошань. Спустя несколько лет, мастер Чэнь Хуашунь умер, и Ип Ман продолжил обучение у старшего ученика Чэнь Хуашуня — Чжунсу. Затем Ип Ман отправился в Гонконг, чтобы продолжить обучение боевым искусствам, расставшись с Е Тяньцы, Ли Мэйхуэй и другими учениками. Во время обучения в Гонконге, Ип Ман часто сталкивался с оскорблениями и дискриминацией со стороны иностранцев…
Качество: BDRip-AVC
Формат: MKV
Аудио кодек: A_AC3
Видео: MPEG4 Video (H264) 1100x468 24 fps 2 748 kbps
Аудио #1: Dolby AC3 48000 Hz 6ch. 448 kbps Russian
Аудио #2: Dolby AC3 48000 Hz 6ch. 448 kbps Chinese

Медиа инфо

Video
ID : 1
Format : AVC
Format/Info : Advanced Video Codec
Format profile : [email protected]
Format settings, CABAC : Yes
Format settings, ReFrames : 9 frames
Codec ID : V_MPEG4/ISO/AVC
Duration : 1h 39mn
Bit rate : 2 748 Kbps
Width : 1 100 pixels
Height : 468 pixels
Display aspect ratio : 2.35:1
Frame rate : 24.000 fps
Color space : YUV
Chroma subsampling : 4:2:0
Bit depth : 8 bits
Scan type : Progressive
Bits/(Pixel*Frame) : 0.222
Stream size : 1.91 GiB (74%)
Title : AVC, 1100x468 (2.35:1); 2819 Kbps; 24 fps; 0,228 bpp
Writing library : x264 core 104 r1688kMod 0b36c6d
Encoding settings : cabac=1 / ref=9 / deblock=1:-1:-1 / analyse=0x3:0x113 / me=umh / subme=10 / psy=1 / psy_rd=0.80:0.05 / mixed_ref=1 / me_range=32 / chroma_me=1 / trellis=2 / 8x8dct=1 / cqm=0 / deadzone=21,11 / fast_pskip=1 / chroma_qp_offset=-3 / threads=6 / sliced_threads=0 / nr=0 / decimate=1 / interlaced=0 / constrained_intra=0 / bframes=8 / b_pyramid=2 / b_adapt=2 / b_bias=0 / direct=1 / weightb=1 / open_gop=0 / weightp=2 / keyint=250 / keyint_min=24 / scenecut=45 / intra_refresh=0 / rc=crf / mbtree=0 / crf=17.7000 / qcomp=0.80 / qpmin=10 / qpmax=51 / qpstep=4 / ip_ratio=1.25 / pb_ratio=1.20 / aq=1:0.95 / zones=141075,143577,q=35
Language : Chinese
Default : Yes
Forced : No
Matrix coefficients : BT.709-5, BT.1361, IEC 61966-2-4 709, SMPTE RP177
Audio #1
ID : 2
Format : AC-3
Format/Info : Audio Coding 3
Mode extension : CM (complete main)
Codec ID : A_AC3
Duration : 1h 39mn
Bit rate mode : Constant
Bit rate : 448 Kbps
Channel(s) : 6 channels
Channel positions : Front: L C R, Side: L R, LFE
Sampling rate : 48.0 KHz
Bit depth : 16 bits
Compression mode : Lossy
Stream size : 319 MiB (12%)
Title : AC3; 48 kHz; CBR; 6 ch; 448 Kbps; Профессиональный (одноголосый)
Language : Russian
Default : Yes
Forced : No
Audio #2
ID : 3
Format : AC-3
Format/Info : Audio Coding 3
Mode extension : CM (complete main)
Codec ID : A_AC3
Duration : 1h 39mn
Bit rate mode : Constant
Bit rate : 448 Kbps
Channel(s) : 6 channels
Channel positions : Front: L C R, Side: L R, LFE
Sampling rate : 48.0 KHz
Bit depth : 16 bits
Compression mode : Lossy
Stream size : 319 MiB (12%)
Title : AC3; 48 kHz; CBR; 6 ch; 448 Kbps; Оригинал
Language : Chinese
Default : No
Forced : No

Скриншоты






Последний раз редактировалось: Kubaev_Muhiddin (2013-08-11 22:00), всего редактировалось 3 раз(а)

Создавать темы 10-Авг-2013 01:25

[Профиль]  [ЛС] 

PIXEL 100

Стаж: 4 года 6 месяцев

Сообщений: 49

Симпатии: 8

не слабо спасибо за релиз

Создавать темы 10-Авг-2013 06:13

[Профиль]  [ЛС] 

abusaid

Стаж: 4 года 5 месяцев

Сообщений: 32

Симпатии: 3

Ип Ман Трилогия - Ip Man Trilogy (Вилсон Йип, Херман Яу) [2008-2010г.г, Боевик / Драма / Биография / История, BDRip]
Отличный сборник. Спасибо

Создавать темы 10-Авг-2013 13:16

[Профиль]  [ЛС] 

Дмитриев

Стаж: 7 лет 5 месяцев

Сообщений: 139

Симпатии: 12

Kubaev_Muhiddin, Отличный релиз!!! малоч респектос ay
Легендарный Великий Мастер Ип

Создавать темы 10-Авг-2013 13:21

[Профиль]  [ЛС] 

Kubaev_Muhiddin ®

Стаж: 6 лет 9 месяцев

Сообщений: 104

Симпатии: 34

Ночью после 12:00 до утра на полной скорости встану на раздачу

Создавать темы 10-Авг-2013 17:27

[Профиль]  [ЛС] 

Дмитриев

Стаж: 7 лет 5 месяцев

Сообщений: 139

Симпатии: 12

Kubaev_Muhiddin,
Отлично ты прям наш спаситель az

Создавать темы 10-Авг-2013 21:52

[Профиль]  [ЛС] 

Kubaev_Muhiddin ®

Стаж: 6 лет 9 месяцев

Сообщений: 104

Симпатии: 34

Kubaev_Muhiddin,
Отлично ты прям наш спаситель az
Стараемся для вас и для трекера az

Создавать темы 11-Авг-2013 11:28

[Профиль]  [ЛС] 

Cupola

Стаж: 7 лет

Сообщений: 31

Симпатии: 4

Уже второй час. Где же скорость?

Создавать темы 17-Авг-2013 01:24

[Профиль]  [ЛС] 

Kurd

Стаж: 4 года 9 месяцев

Сообщений: 20

Стараемся для вас и для трекера az
Ну так на раздачу вставай хоть иногда.

Создавать темы 17-Авг-2013 11:58

[Профиль]  [ЛС] 

Kubaev_Muhiddin ®

Стаж: 6 лет 9 месяцев

Сообщений: 104

Симпатии: 34

Стараемся для вас и для трекера az
Ну так на раздачу вставай хоть иногда.
Я всегда на раздаче, вот только вчера не был дома.


Последний раз редактировалось: Kubaev_Muhiddin (2013-08-23 22:53), всего редактировалось 1 раз

Создавать темы 18-Авг-2013 20:21

[Профиль]  [ЛС] 

Kurd

Стаж: 4 года 9 месяцев

Сообщений: 20

Я всегада на раздаче, вот только вчера не был дома.
Да вижу, но... Можно ли повысить скорость?
При моих скачанных 9% (576 мб), я уже отдал 3,55 гига, хотя параллельно еще 96 фильмов на раздаче имею.
Может стоит на время приостановить другие раздачи? у тебя их тоже не мало... (и это заслуживает уважения)
Или, если есть возможность, готов на флешке забрать (если в центре города) и помогать с раздачей.

Создавать темы 19-Авг-2013 08:43

[Профиль]  [ЛС] 

Kubaev_Muhiddin ®

Стаж: 6 лет 9 месяцев

Сообщений: 104

Симпатии: 34

Я всегда на раздаче, вот только вчера не был дома.
Да вижу, но... Можно ли повысить скорость?
При моих скачанных 9% (576 мб), я уже отдал 3,55 гига, хотя параллельно еще 96 фильмов на раздаче имею.
Может стоит на время приостановить другие раздачи? у тебя их тоже не мало... (и это заслуживает уважения)
Или, если есть возможность, готов на флешке забрать (если в центре города) и помогать с раздачей.
Стараюсь друг мой стараюсь, спасибо за гордые слова

Создавать темы 19-Авг-2013 22:30

[Профиль]  [ЛС] 

Kubaev_Muhiddin ®

Стаж: 6 лет 9 месяцев

Сообщений: 104

Симпатии: 34

Я всегда на раздаче, вот только вчера не был дома.
Да вижу, но... Можно ли повысить скорость?
При моих скачанных 9% (576 мб), я уже отдал 3,55 гига, хотя параллельно еще 96 фильмов на раздаче имею.
Может стоит на время приостановить другие раздачи? у тебя их тоже не мало... (и это заслуживает уважения)
Или, если есть возможность, готов на флешке забрать (если в центре города) и помогать с раздачей.

Создавать темы 23-Авг-2013 22:52

[Профиль]  [ЛС] 

Kubaev_Muhiddin ®

Стаж: 6 лет 9 месяцев

Сообщений: 104

Симпатии: 34

Я всегда на раздаче, вот только вчера не был дома.
Да вижу, но... Можно ли повысить скорость?
При моих скачанных 9% (576 мб), я уже отдал 3,55 гига, хотя параллельно еще 96 фильмов на раздаче имею.
Может стоит на время приостановить другие раздачи? у тебя их тоже не мало... (и это заслуживает уважения)
Или, если есть возможность, готов на флешке забрать (если в центре города) и помогать с раздачей.
Я не в Ташкенте живу друг мой

Создавать темы 23-Авг-2013 22:55

[Профиль]  [ЛС] 

ps18-mufc

Стаж: 4 года 4 месяца

Сообщений: 22

Симпатии: 1

Может включим немного скорости, а то так не понятно сколько времени будем качать. Уже месяц стоит, никак не получается скачать...

Создавать темы 01-Фев-2014 21:26

[Профиль]  [ЛС] 
Показать сообщения:    
Ответить на тему

Текущее время: 20-Ноя 09:15

Часовой пояс: UTC + 5



Вы не можете начинать темы
Вы не можете отвечать на сообщения
Вы не можете редактировать свои сообщения
Вы не можете удалять свои сообщения
Вы не можете голосовать в опросах
Вы не можете прикреплять файлы к сообщениям
Вы не можете скачивать файлы