17 дочерей / 17 filles (Дельфин Кулин / Delphine Coulin, Мюриэль Кулин / Muriel Coulin) [2011, Франция, социальная драма, DVDRip] DVO + Original Fre

Ответить на тему
 

zta ®

Стаж: 4 года 8 месяцев

Сообщений: 14

Симпатии: 11

17 дочерей / 17 filles
Страна: Франция
Жанр: социальная драма
Год выпуска: 2011
Продолжительность: 01:26:34
Перевод: Профессиональный (двухголосый закадровый) студия Elrom
Cубтитры: нет
Оригинальная аудиодорожка: французский
Режиссер: Дельфин Кулин /Delphine Coulin/, Мюриэль Кулин /Muriel Coulin/
В ролях: Луиз Гринбер /Louise Grinberg/, Джульетт Дарче /Juliette Darche/, Роксана Дюран /Roxane Duran/, Эстер Гаррел /Esther Garrel/, Солен Риго /Solène Rigot/, Ноэми Львовски /Noémie Lvovsky/
Описание: Главной героине 16 лет. После ни к чему не обязывающей летней интрижки узнав, что она беременна, девушка вовсе не собирается посыпать голову пеплом и не спешит избавиться от ненужного и неожиданного "сюрприза". Напротив, использует свою популярность и харизму в классе для того, чтобы убедить одноклассниц последовать ее примеру. Все девушки убеждены, что беременность послужит им настоящим и неоспоримым пропуском в вожделенный взрослый мир, где родители уже не смогут указывать им, как жить. Они уверены, что став молодыми мамами, будут всегда понимать своих детей и смогут дать им не просто новую жизнь, но и новое, незнакомое "старикам" воспитание. Идея, как оговорится, овладевает массами до такой степени, что даже не беременные пытаются этот "недостаток" скрыть, имитируя "интересное положение"…
Все эти девушки живут в районе с низким социальным статусом, жизнь их родных плохо устроена. Беременные школьницы рассчитывают шикарно устроить свою новую жизнь на социальное пособие в 800 евро, но жизнь вносит в их планы свои коррективы.
Дебютный фильм двух сестер-режиссеров Дельфин и Мюриэль Кулин, имевший большой успех на многочисленных кинофестивалях.
Фильм основан на реальных событиях, случившихся в 1998 году в одном из провинциальных городков США, где почти одновременно забеременела большая группа школьниц. Этот своеобразный социальный демарш девочек вызвал всеобщий переполох, об этом случае много писали, снимали документальное и телевизионное кино. Но французские режиссеры совершенно по-особому показывают события, которые они своей художественной волей перенесли на французскую почву.
Авторам фильма удалось занять в картине замечательных юных актрис, среди которых - Луиз Гринберг, уже успевшая прославиться в картине "Класс", где также затрагивалась тема подросткового бунта, способного далеко завести бунтовщиков. Но "17 дочерей", как отмечают критики, - это особое кино: красивое, эмоциональное и в то же время правдивое и реалистичное
Доп. информация: IMDB
Релиз группы:
Качество видео: DVDRip
Формат видео: AVI
Видео: Xvid 720x384 25.00fps 1735kbps
Аудио: MPEG Audio Layer 3 48000Hz stereo 128kbps [Rus]
Аудио 2: Dolby AC3 48000Hz 6ch 384kbps [Fre]

MediaInfo

General
Complete name : D:\Фильмы\25-kadr\17.Do\17.Docherej.2011.DVDrip.XviD.Ru-En_25KADR.avi
Format : AVI
Format/Info : Audio Video Interleave
File size : 1.37 GiB
Duration : 1h 26mn
Overall bit rate : 2 261 Kbps
Movie name : 17.Do4erej
Original source form/Distributed by : DVD5
Genre : Drama
Copyright : 25KADR
Comment : DVO (Elrom studio)
Video
ID : 0
Format : MPEG-4 Visual
Format profile : Advanced [email protected]
Format settings, BVOP : 2
Format settings, QPel : No
Format settings, GMC : No warppoints
Format settings, Matrix : Default (H.263)
Codec ID : XVID
Codec ID/Hint : XviD
Duration : 1h 26mn
Bit rate : 1 735 Kbps
Width : 720 pixels
Height : 384 pixels
Display aspect ratio : 1.875
Frame rate : 25.000 fps
Color space : YUV
Chroma subsampling : 4:2:0
Bit depth : 8 bits
Scan type : Progressive
Compression mode : Lossy
Bits/(Pixel*Frame) : 0.251
Stream size : 1.05 GiB (77%)
Writing library : XviD 64
Audio #1
ID : 1
Format : MPEG Audio
Format version : Version 1
Format profile : Layer 3
Mode : Joint stereo
Codec ID : 55
Codec ID/Hint : MP3
Duration : 1h 26mn
Bit rate mode : Constant
Bit rate : 128 Kbps
Channel(s) : 2 channels
Sampling rate : 48.0 KHz
Compression mode : Lossy
Stream size : 79.3 MiB (6%)
Alignment : Aligned on interleaves
Interleave, duration : 40 ms (1.00 video frame)
Interleave, preload duration : 504 ms
Language : 1.
Audio #2
ID : 2
Format : AC-3
Format/Info : Audio Coding 3
Mode extension : CM (complete main)
Codec ID : 2000
Duration : 1h 26mn
Bit rate mode : Constant
Bit rate : 384 Kbps
Channel(s) : 6 channels
Channel positions : Front: L C R, Side: L R, LFE
Sampling rate : 48.0 KHz
Bit depth : 16 bits
Compression mode : Lossy
Stream size : 238 MiB (17%)
Alignment : Split accross interleaves
Interleave, duration : 40 ms (1.00 video frame)
Interleave, preload duration : 500 ms

Скриншот c названием фильма

Скриншоты



Последний раз редактировалось: zta (2013-08-10 19:57), всего редактировалось 2 раз(а)

Создавать темы 10-Авг-2013 16:23

[Профиль]  [ЛС] 

СтАсИкОс

Стаж: 6 лет 11 месяцев

Сообщений: 314

Симпатии: 20

Подправил постер, были траблы с тегами!

Создавать темы 10-Авг-2013 16:35

[Профиль]  [ЛС] 

zta ®

Стаж: 4 года 8 месяцев

Сообщений: 14

Симпатии: 11

спасибо )

Создавать темы 10-Авг-2013 16:40

[Профиль]  [ЛС] 
Показать сообщения:    
Ответить на тему

Текущее время: 15-Дек 03:55

Часовой пояс: UTC + 5



Вы не можете начинать темы
Вы не можете отвечать на сообщения
Вы не можете редактировать свои сообщения
Вы не можете удалять свои сообщения
Вы не можете голосовать в опросах
Вы не можете прикреплять файлы к сообщениям
Вы не можете скачивать файлы