Эпик / Epic (Крис Уэдж / Chris Wedge) [2013, мультфильм, фэнтези, приключения, семейный, HDRip][лицензия]

Ответить на тему
 

Suxrob89 ®

Стаж: 7 лет

Сообщений: 933

Симпатии: 564

-«Исследуй мир за пределами своего воображения»- Страна: США
Жанр: мультфильм, фэнтези, приключения, семейный
Продолжительность: 01:42:29
Год выпуска: 2013
Перевод: Дублированный [лицензия]
Субтитры: Отсутствуют-Режиссёр: Крис Уэдж / Chris Wedge-Роли озвучивали: Джейсон Судейкис, Стивен Тайлер, Аманда Сайфред, Питбулл, Бейонсе Ноулз, Джош Хатчерсон, Джуда Фридлендер, Колин Фаррелл, Азиз Ансари, Блейк Андерсон-Роли дублировали: Юлия Савичева, Пётр Иващенко, Диомид Виноградов-Описание: После долгой разлуки юная Мэри Кэтрин возвращается в дом, где отшельником живет ее отец, безумный профессор Бомба. Однако тот совсем не обращает внимания на дочь и одержим лишь одной идеей — изучить скрытый от посторонних глаз таинственный лесной мир. Девушка отказывается верить, что под ногами человечества идет вечная борьба между армиями, воюющими на сторонах добра и зла. Чудесным образом Мэри Кэтрин уменьшается в размерах и знакомится с маленькими воинами. Теперь от нее зависит спасение не только волшебного лесного, но и реального человеческого мира…- -Качество: HDRip
Формат: AVI
Видео: 2020 Kb/s, 720x304
Аудио: Russian: AC3, 384 kb/s (6 ch) / English: AC3, 448 kb/s (6 ch) |iTunes Russia|-

Media info

F:\Epic.2013.D.HDRip.avi
General
Complete name : F:\Epic.2013.D.HDRip.avi
Format : AVI
Format/Info : Audio Video Interleave
File size : 2.05 GiB
Duration : 1h 42mn
Overall bit rate : 2 867 Kbps
Writing application : VirtualDubMod 1.5.10.2 (build 2540/release)
Writing library : VirtualDubMod build 2540/release
Video #0
ID : 0
Format : MPEG-4 Visual
Codec ID : XVID
Codec ID/Hint : XviD
Duration : 1h 42mn
Source duration : 41mn 49s
Bit rate : 231 Mbps
Width : 720 pixels
Height : 304 pixels
Display aspect ratio : 2.35:1
Frame rate : 23.976 fps
Color space : YUV
Chroma subsampling : 4:2:0
Compression mode : Lossy
Bits/(Pixel*Frame) : 43.975
Stream size : 67.4 GiB
Audio #1
ID : 1
Format : AC-3
Format/Info : Audio Coding 3
Codec ID : 2000
Duration : 1h 42mn
Bit rate mode : Constant
Bit rate : 384 Kbps
Channel(s) : 6 channels
Sampling rate : 48.0 KHz
Compression mode : Lossy
Stream size : 231 GiB
Alignment : Aligned on interleaves
Interleave, duration : 42 ms (1.00 video frame)
Audio #2
ID : 2
Format : AC-3
Format/Info : Audio Coding 3
Codec ID : 2000
Duration : 1h 42mn
Source duration : 81h 52mn
Bit rate mode : Constant
Bit rate : 448 Kbps
Channel(s) : 6 channels
Sampling rate : 48.0 KHz
Compression mode : Lossy
Stream size : 15.4 GiB
Alignment : Aligned on interleaves
Interleave, duration : 42 ms (1.00 video frame)
Interleave, preload duration : 500 ms

Знаете ли вы, что...

• Первый фильм Blue Sky Studios, в котором главным героем является девушка. Для студии Twentieth Century Fox это первый после «Анастасии» (1997) кинотеатральный анимационный фильм с девушкой в качестве главной героини.
• Второй фильм Blue Sky Studios после фильма «Ледниковый период» (2002), где композитором не стал Джон Пауэлл.
Ошибки в мультфильме:
• Когда Мэри Кэтрин и ее отец воссоединяются в лесу, его глаза синие, в то время как в любых других сценах они зеленые.

Скриншоты

-


Последний раз редактировалось: Suxrob89 (2017-02-23 12:04), всего редактировалось 2 раз(а)

Создавать темы 10-Авг-2013 22:22

[Профиль]  [ЛС] 

kiparobot

Стаж: 6 лет 6 месяцев

Сообщений: 37

Симпатии: 3

помогу с раздачей

Создавать темы 10-Авг-2013 23:24

[Профиль]  [ЛС] 

Nur7575

Стаж: 4 года 10 месяцев

Сообщений: 11

дайте скорости плиззз и спасибо

Создавать темы 11-Авг-2013 12:32

[Профиль]  [ЛС] 

focusn1k

Стаж: 4 года 10 месяцев

Сообщений: 30

Беру Автору спасибо

Создавать темы 11-Авг-2013 15:05

[Профиль]  [ЛС] 

ELVIRALTW

Стаж: 5 лет 3 месяца

Сообщений: 45

Симпатии: 1

хахаха закачка 10- отдача 100 кб/с

Создавать темы 11-Авг-2013 16:55

[Профиль]  [ЛС] 

skyrocker

Стаж: 5 лет 6 месяцев

Сообщений: 96

Симпатии: 3

Жаль без англ дороги) но спасибо за мульт)

Создавать темы 13-Авг-2013 00:59

[Профиль]  [ЛС] 

A_of_AA

Стаж: 4 года 9 месяцев

Сообщений: 3

vuaxaxaxaxaxaxa

Создавать темы 17-Сен-2013 17:55

[Профиль]  [ЛС] 

Monroe

Стаж: 4 года 2 месяца

Сообщений: 220

Симпатии: 62

А что такое |iTunes Russia|

Создавать темы 28-Сен-2013 15:35

[Профиль]  [ЛС] 

bk201_1991

Стаж: 3 года 10 месяцев

Сообщений: 4

хороший мульт, но очень предсказуемый

Создавать темы 17-Окт-2013 21:15

[Профиль]  [ЛС] 

griNder

Стаж: 3 года 9 месяцев

Сообщений: 39

Симпатии: 1

помогите с раздачей

Создавать темы 24-Ноя-2013 18:00

[Профиль]  [ЛС] 

kennedy

Стаж: 5 лет 6 месяцев

Сообщений: 4

помогу с раздачу

Создавать темы 15-Май-2014 09:05

[Профиль]  [ЛС] 

GROM1

Стаж: 4 года 6 месяцев

Сообщений: 2

давай раздачууууууууууу

Создавать темы 10-Июн-2014 22:56

[Профиль]  [ЛС] 

GROM1

Стаж: 4 года 6 месяцев

Сообщений: 2

сегодня ночью раздачууууууууу плизззззззззззз

Создавать темы 10-Июн-2014 23:04

[Профиль]  [ЛС] 
Показать сообщения:    
Ответить на тему

Текущее время: 24-Авг 02:28

Часовой пояс: UTC + 5



Вы не можете начинать темы
Вы не можете отвечать на сообщения
Вы не можете редактировать свои сообщения
Вы не можете удалять свои сообщения
Вы не можете голосовать в опросах
Вы не можете прикреплять файлы к сообщениям
Вы не можете скачивать файлы