Через тернии к звёздам (Ричард Викторов) [1980, фантастика, DVDRip] оригинальная версия

Ответить на тему
 

Джамшид ®

Стаж: 7 лет 3 месяца

Сообщений: 136

Симпатии: 14

Через тернии к звёздам (2 серии)
Жанр: фантастика
Год выпуска: 1980
Продолжительность: 02:20:08 (01:14:13 01:05:55)
Режиссёр: Ричард Викторов
В ролях:
Елена Метелкина
Вадим Ледогоров
Улдис Лиелдидж
Елена Фадеева
Вацлав Дворжецкий
Надежда Семенцова
Александр Лазарев
Александр Михайлов
Борис Щербаков
Игорь Ледогоров
Описание:
В таинственных глубинах Вселенной патрульный звездолет «Пушкин» обнаружил космический корабль неизвестной землянам конструкции. Борт корабля представлял собой лабораторию по клонированию живых организмов. Дети, похожие один на другого, как две капли воды, были мертвы.
Лишь одна девушка, безмолвная и испуганная, осталась жива. Нийя, внешне очень похожая на человека, была рождена необычным способом — выращена искусственно из живых клеток, и обладала необычными свойствами: могла мгновенно перемещаться в пространстве, передвигать взглядом предметы, у нее была молниеносная реакция, необычная сила.
По прибытии на Землю, ученые выяснили, что в мозг инопланетянки зашит пульт управления, призванный гарантировать точное выполнение «особой миссии». Пульт начинает действовать в тот момент, когда Нийа в составе земной экспедиции высаживается на своей родной планете Десса…

Знаете ли вы, что...

  • Виды гибнущей планеты Десса снимались в Таджикистане, в окрестностях заброшенного нефтеперерабатывающего завода возле города Исфары.
  • В 2001 году сыном режиссёра была выпущена переработанная версия фильма. Переработаны некоторые спецэффекты, записана полностью новая звуковая дорожка в формате Dolby Digital. Продолжительность фильма сокращена на 20 минут (по утверждениям авторов переработанной версии сокращены растянутые эпизоды, снижавшие динамику фильма, и выброшены эпизоды, нёсшие в себе советскую идеологическую окраску).
  • Композитор Алексей Рыбников при написании музыки к фильму использовал мелодии, написанные им для оперы «Юнона и Авось». В новой версии по соображениям охраны авторских прав все они были заменены музыкой Д. Рыбникова, сына Алексея Львовича.
  • В конце фильма предполагалось поместить надпись: «Все кадры гибнущей планеты Десса сняты на планете Земля», однако в первой версии редакторы фразу вырезали, сочтя её недопустимо острой. Эти титры появились лишь в финале обновлённой версии фильма.
Качество видео: DVDRip
Формат видео: AVI
Видео: 704x384 (1.83:1), 25 fps, XviD build 64 ~1287 kbps avg, 0.19 bit/pixel
Аудио: 48 kHz, AC3 Dolby Digital, 2/0 (L,R) ch, ~192 kbps

MediaInfo

Общее
Полное имя : D:\Torrent\Через тернии к звездам_old_1.46\Через тернии к звездам_old_1.46\Через тернии к звездам_1.46_1c.avi
Формат : AVI
Формат/Информация : Audio Video Interleave
Размер файла : 790 Мбайт
Продолжительность : 1 ч. 14 м.
Общий поток : 1489 Кбит/сек
Программа кодирования : VirtualDubMod 1.5.10.3 | www.virtualdub-fr.org || (build 2550/release)
Библиотека кодирования : VirtualDubMod build 2550/release
Видео
Идентификатор : 0
Формат : MPEG-4 Visual
Профиль формата : Advanced [email protected]
Параметр BVOP формата : 1
Параметр QPel формата : Нет
Параметр GMC формата : Без точки перехода
Параметр матрицы формата : Выборочная
Идентификатор кодека : XVID
Идентификатор кодека/Подсказка : XviD
Продолжительность : 1 ч. 14 м.
Битрейт : 1287 Кбит/сек
Ширина : 704 пикселя
Высота : 384 пикселя
Соотношение сторон : 16:9
Частота кадров : 25,000 кадров/сек
Цветовое пространство : YUV
Субдискретизация насыщенности : 4:2:0
Битовая глубина : 8 бит
Тип развёртки : Прогрессивная
Метод сжатия : С потерями
Бит/(Пиксели*Кадры) : 0.190
Размер потока : 683 Мбайт (86%)
Библиотека кодирования : XviD 64
Аудио
Идентификатор : 1
Формат : AC-3
Формат/Информация : Audio Coding 3
Расширение режима : CM (complete main)
Идентификатор кодека : 2000
Продолжительность : 1 ч. 14 м.
Вид битрейта : Постоянный
Битрейт : 192 Кбит/сек
Каналы : 2 канала
Расположение каналов : Front: L R
Частота : 48,0 КГц
Битовая глубина : 16 бит
Метод сжатия : С потерями
Размер потока : 102 Мбайт (13%)
Выравнивание : Разделение по промежуткам
Продолжительность промежутка : 40 мс. (1,00 видеокадр)
Время предзагрузки промежутка : 500 мс.
Общее
Полное имя : D:\Torrent\Через тернии к звездам_old_1.46\Через тернии к звездам_old_1.46\Через тернии к звездам_1.46_2c.avi
Формат : AVI
Формат/Информация : Audio Video Interleave
Размер файла : 712 Мбайт
Продолжительность : 1 ч. 5 м.
Общий поток : 1511 Кбит/сек
Программа кодирования : VirtualDubMod 1.5.10.3 | www.virtualdub-fr.org || (build 2550/release)
Библиотека кодирования : VirtualDubMod build 2550/release
Видео
Идентификатор : 0
Формат : MPEG-4 Visual
Профиль формата : Advanced [email protected]
Параметр BVOP формата : 1
Параметр QPel формата : Нет
Параметр GMC формата : Без точки перехода
Параметр матрицы формата : Выборочная
Идентификатор кодека : XVID
Идентификатор кодека/Подсказка : XviD
Продолжительность : 1 ч. 5 м.
Битрейт : 1309 Кбит/сек
Ширина : 704 пикселя
Высота : 384 пикселя
Соотношение сторон : 16:9
Частота кадров : 25,000 кадров/сек
Цветовое пространство : YUV
Субдискретизация насыщенности : 4:2:0
Битовая глубина : 8 бит
Тип развёртки : Прогрессивная
Метод сжатия : С потерями
Бит/(Пиксели*Кадры) : 0.194
Размер потока : 617 Мбайт (87%)
Библиотека кодирования : XviD 64
Аудио
Идентификатор : 1
Формат : AC-3
Формат/Информация : Audio Coding 3
Расширение режима : CM (complete main)
Идентификатор кодека : 2000
Продолжительность : 1 ч. 5 м.
Вид битрейта : Постоянный
Битрейт : 192 Кбит/сек
Каналы : 2 канала
Расположение каналов : Front: L R
Частота : 48,0 КГц
Битовая глубина : 16 бит
Метод сжатия : С потерями
Размер потока : 90,5 Мбайт (13%)
Выравнивание : Разделение по промежуткам
Продолжительность промежутка : 40 мс. (1,00 видеокадр)
Время предзагрузки промежутка : 500 мс.

Скриншоты





Создавать темы 12-Авг-2013 07:43

[Профиль]  [ЛС] 

siahist

Стаж: 5 лет 2 месяца

Сообщений: 1

спасибо!давно ждал этого фильма здесь

Создавать темы 02-Сен-2013 22:14

[Профиль]  [ЛС] 

rustam6996

Стаж: 7 лет 7 месяцев

Сообщений: 51

Симпатии: 3

дайте скачать, хоть кто-нибудь! почему-то не качается

Создавать темы 30-Сен-2013 21:52

[Профиль]  [ЛС] 
Показать сообщения:    
Ответить на тему

Текущее время: 22-Авг 02:46

Часовой пояс: UTC + 5



Вы не можете начинать темы
Вы не можете отвечать на сообщения
Вы не можете редактировать свои сообщения
Вы не можете удалять свои сообщения
Вы не можете голосовать в опросах
Вы не можете прикреплять файлы к сообщениям
Вы не можете скачивать файлы