Проект X. Дорвались / Project X (Нима Нуризаде) [2012 г., Комедия,криминал, BDRip] Dub

Ответить на тему
 

EvilDevil ®

Стаж: 4 года 4 месяца

Сообщений: 9

Симпатии: 3

Проект X: Дорвались/Project X
Год: 2012
Страна: США
Жанр: Комедия
Продолжительность: 01:28:00
Перевод: Професиональный (Полное Дублирование)
Режиссер: Нима Нуризаде
В ролях: Томас Манн,Оливер Купер,Джонатан Даниэль Браун,Дакс Флэйм,Кирби Блисс Блэнтон,Брэйди Эндер,Ник Нервис,Алексис Нэп,Майлз Теллер,Питер Маккензи,Кэйтлин Дюлэйни и Другие
: «Проект X: Дорвались» — самую высшею оценку десять, я как правило ставлю только тем фильмам, которые для меня открылись как истинные шедевры, но поставить ниже чем десять молодежной комедии «Проект X: Дорвались», я попросту не могу, так как фильм мне принес массу удовольствия, позитива, я реально кайфанул от просмотра, и все это подарил мне фильм, снятый с применением эффекта любительской съёмки, кто бы мог подумать, что именно такой стиль съемки кино, будет практически незамеченный, ведь все внимания будет сконцентрировано на толпу обезбашенных молодых людей, которым насрать на все, что происходить за границами дома, в котором собственно и родилась эпическая тусовка, вошедшая в историю всех школьных вечеринок. Целая толпа молодых людей, куда не глянь везде красотки трясут своими попками, везде курится марихуана, глотается экстази, разврат и беспредел взял контроль над скромной тусовкой, которую устроили три неизвестных никому школьника, Томас, Коста и их толстый друг и J.B. Режиссер фильма Нима Нуризаде, по моему ему удалось удивить новой, абсолютно не похожей к другим, молодежной комедией. Съемка от первого лица в принципе не должна была бы испугать зрителя, так как существует парочка фильмов, снятые в таком роде.
«Как мы знаем — сиськи делают лучше всё, а их тут много.»
Я еще от трейлера был в восторге, и очень ждал этого фильма. Нима Нуризаде большой умничка, потому что он полностью сделал фильм эксклюзивным. Если бы в фильме применили обычный формат съемки, ну было бы круто все равно, но именно этот замысел с парнем, который как бы друг наших главных героев, снимающий все пати на свою камеру, и сделало фильм уникальным, дарующим всем нам такое чувство, как будто все это безумия происходило на самом деле, и перед нами не полнометражный фильм, а обычное видео, которое мы смотрим на сайте YouTube. Для меня все ребята были главными героями, ведь успех фильма только благодаря им и их энергии. Сюжет очень очень прост. Два верных друга решают организовать вечеринку для своего кореша, которому выполнилось семнадцать лет. Сам именинник не против, только имея сурового отца, он придерживается к не большой скромности по поводу вечеринки, но друзья это друзья, всегда хотят чтобы было чем получше, но в результате выходит, как показывает нам фильм, полная жопа, которая накрыла полностью весь район Пасадены.
При ожидании пол сотни человек, к утру именинник Томас насчитал где то около двух тысяч гостей, которые все прибывали и прибывали. Вот чем именно интересен фильм, так это поднятием стрелочки по шкале Хаоса. Как все более менее мило начиналось, и во что превратилось в конце ночи, это был тотальный хаос, который остановить могли только спецподразделение SWAT. Подводя итог скажу, если Вы все же решите посмотреть фильм, я Вам гарантирую, что Вас ожидает масса юмора, например привязанная собачка к воздушным шарикам или пленный в духовке карлик, одним словом — фильм незабываемый.
«Warner Bros приносит всем жителям Пасадены свои извинения.»

Знаете ли вы:
Съемки фильма «Проект X: Дорвались» проходили на протяжении 25 ночей с пяти вечера до пяти утра в ранчо Warner Bros. в Бёрбанке, Калифорния, где находились декорации пригородных домов. К концу фильма почти все они были уничтожены.

Качество: BDRip
Формат: AVI
Видео: MPEG-4 AVC, x264, 704 x 400 (16:9); 23.976 fps; ~1990 kbps;
Аудио: 48 kHz, AC3 Dolby Digital, 3/2 (L,C,R,l,r) + LFE ch, ~384.00 kbps avg

Скриншоты



Медиа Инфа

Общее
Полное имя : D:\дима-Дьявол\Видео\ФиЛьмы\Проект X. Дорвались.avi
Формат : AVI
Формат/Информация : Audio Video Interleave
Размер файла : 1,46 Гбайт
Продолжительность : 1 ч. 27 м.
Общий поток : 2374 Кбит/сек
Название фильма : Project X / Theatrical Version (2012)
Режиссёр : Vaippp
Жанр : Comedy
Программа кодирования : VirtualDubModRus 1.5.10.2 (build 2542/release)
Формат оригинала/Имя : Movie
Правообладатель : HQ-ViDEO
Примечание : BDRip
Видео
Идентификатор : 0
Формат : MPEG-4 Visual
Профиль формата : Advanced [email protected]
Параметр BVOP формата : 2
Параметр QPel формата : Нет
Параметр GMC формата : Без точки перехода
Параметр матрицы формата : Выборочная
Идентификатор кодека : XVID
Идентификатор кодека/Подсказка : XviD
Продолжительность : 1 ч. 27 м.
Битрейт : 1980 Кбит/сек
Ширина : 704 пикселя
Высота : 400 пикселей
Соотношение сторон : 16:9
Частота кадров : 23,976 кадра/сек
Цветовое пространство : YUV
Субдискретизация насыщенности : 4:2:0
Битовая глубина : 8 бит
Тип развёртки : Прогрессивная
Метод сжатия : С потерями
Бит/(Пиксели*Кадры) : 0.293
Размер потока : 1,22 Гбайт (83%)
Библиотека кодирования : XviD 64
Аудио
Идентификатор : 1
Формат : AC-3
Формат/Информация : Audio Coding 3
Расширение режима : CM (complete main)
Параметр Endianness формата : Big
Идентификатор кодека : 2000
Продолжительность : 1 ч. 27 м.
Вид битрейта : Постоянный
Битрейт : 384 Кбит/сек
Каналы : 6 каналов
Расположение каналов : Front: L C R, Side: L R, LFE
Частота : 48,0 КГц
Битовая глубина : 16 бит
Метод сжатия : С потерями
Размер потока : 241 Мбайт (16%)
Выравнивание : Разделение по промежуткам
Продолжительность промежутка : 42 мс. (1,00 видеокадр)
Время предзагрузки промежутка : 500 мс
:

Создавать темы 12-Авг-2013 19:37

[Профиль]  [ЛС] 

EvilDevil ®

Стаж: 4 года 4 месяца

Сообщений: 9

Симпатии: 3

ПРоверте и буду раздавать на полную

Создавать темы 12-Авг-2013 19:43

[Профиль]  [ЛС] 

Imperiya

Стаж: 6 лет 8 месяцев

Сообщений: 275

Симпатии: 4

прошу проверти

Создавать темы 12-Авг-2013 19:49

[Профиль]  [ЛС] 

Fuzuliy

Стаж: 5 лет 9 месяцев

Сообщений: 202

Симпатии: 12

Создавать темы 12-Авг-2013 19:52

[Профиль]  [ЛС] 

Mr.HuseyiN

Стаж: 4 года 4 месяца

Сообщений: 62

Симпатии: 8

Fuzuliy, что он сделал ?EvilDevil, Поправ--Bot вашее

Создавать темы 12-Авг-2013 19:54

[Профиль]  [ЛС] 

EvilDevil ®

Стаж: 4 года 4 месяца

Сообщений: 9

Симпатии: 3

Чё Сделать ???

Создавать темы 12-Авг-2013 21:19

[Профиль]  [ЛС] 

EvilDevil ®

Стаж: 4 года 4 месяца

Сообщений: 9

Симпатии: 3

Создавать темы 12-Авг-2013 21:23

[Профиль]  [ЛС] 

Imperiya

Стаж: 6 лет 8 месяцев

Сообщений: 275

Симпатии: 4

EvilDevil" брат ты же сам сказал ПРоверте и буду раздавать на полную а зачем не раздаеш уже 2 дня качаю проше постав на раздачу

Создавать темы 13-Авг-2013 15:22

[Профиль]  [ЛС] 

EvilDevil ®

Стаж: 4 года 4 месяца

Сообщений: 9

Симпатии: 3

У меня Инета Сегодня не было СООРи Всю ноч раздавать Буду

Создавать темы 13-Авг-2013 23:23

[Профиль]  [ЛС] 

Xoyze

Стаж: 5 лет 10 месяцев

Сообщений: 69

Симпатии: 2

Кто на связи, не уходите с раздачи, дайте скачать фильмец. Очень хочется посмотреть.
Спасибо большое!

Создавать темы 29-Авг-2013 18:56

[Профиль]  [ЛС] 

FRON

Стаж: 5 лет 1 месяц

Сообщений: 46

Поднажмите газу други плз

Создавать темы 02-Сен-2013 22:26

[Профиль]  [ЛС] 

Fuzuliy

Стаж: 5 лет 9 месяцев

Сообщений: 202

Симпатии: 12

Посмотрев этот фильм я понял что моя жизнь совсем не интересная

Создавать темы 07-Окт-2013 23:09

[Профиль]  [ЛС] 

hayri1980

Стаж: 6 лет 8 месяцев

Сообщений: 19

Дайте пожалуйста скорости

Создавать темы 07-Мар-2014 04:34

[Профиль]  [ЛС] 
Показать сообщения:    
Ответить на тему

Текущее время: 14-Дек 14:52

Часовой пояс: UTC + 5



Вы не можете начинать темы
Вы не можете отвечать на сообщения
Вы не можете редактировать свои сообщения
Вы не можете удалять свои сообщения
Вы не можете голосовать в опросах
Вы не можете прикреплять файлы к сообщениям
Вы не можете скачивать файлы