Будьте как дома / Как дома / Comme Chez Soi (Лоренцо Габриэль / Lorenzo Gabriele) [2011, Франция, комедия, HDTV 1080i] DVO (ТПО Ред Медиа) + Original Fre

Ответить на тему
 

zta ®

Стаж: 4 года 8 месяцев

Сообщений: 14

Симпатии: 11

Будьте как дома / Как дома / Comme Chez Soi
Страна: Франция
Студия: Flach Film Production, Flach Film
Жанр: комедия
Год выпуска: 2011
Продолжительность: 01:26:57
Перевод: Профессиональный (двухголосый закадровый) ТПО Ред Медиа
Cубтитры: нет
Оригинальная аудиодорожка: французский
Режиссер: Лоренцо Габриэль / Lorenzo Gabriele
В ролях: Элис Тилрой/ Elise Tielrooy (Cécile), Филипп Лефебр / Philippe Lefebvre (Marc), Седеф Эсер / Sedef Ecer (Banu), Ёз Нуйен / Özz Nûjen (Burhan), Шемс Ода / Shemss Audat (Defné), Максим Кожьо / Maxime Coggio (Victor), Камиль Вершуре / Camille Verschuere (Betty), Ханна Коэн / Hanna Cohen (Miné)
Описание: Французская семья на время отпуска меняется своим домом с турецкой семьей. Но в последний момент отец узнает, что началась реорганизация фирмы и он может потерять работу. Уже слишком поздно отменять сделку. По согласованию сторон начинается своеобразное "сожительство" двух семей под одной крышей, причем, длится оно дольше, чем планировалось вначале…
Доп. информация:
За оригинальную дорогу спасибо ralf124c41+
Тип релиза: HDTV 1080i
Контейнер: MKV
Видео: AVC 1920x1080 (16:9) 25.0fps Bit rate 4925Kbps
Аудио 1: AC3 48.0KHz 2ch 192 Kbps rus
Аудио 2: AC3 48.0KHz 2ch 192 Kbps fre

MediaInfo

General
Complete name : E:\torrent\Budte kak doma_HDTV 1080i.mkv
Format : Matroska
File size : 3.29 GiB
Duration : 1h 26mn
Overall bit rate : 5 417 Kbps
Encoded date : UTC 2013-08-01 02:23:27
Writing application : mkvmerge v5.7.0 ('The Whirlwind') built on Jul 8 2012 20:08:51
Writing library : libebml v1.2.3 + libmatroska v1.3.0
Video
ID : 1
Format : AVC
Format/Info : Advanced Video Codec
Format profile : [email protected]
Format settings, CABAC : Yes
Format settings, ReFrames : 3 frames
Muxing mode : Container [email protected]
Codec ID : V_MPEG4/ISO/AVC
Duration : 1h 26mn
Bit rate : 4 925 Kbps
Width : 1 920 pixels
Height : 1 080 pixels
Display aspect ratio : 16:9
Frame rate : 50.000 fps
Original frame rate : 25.000 fps
Standard : Component
Color space : YUV
Chroma subsampling : 4:2:0
Bit depth : 8 bits
Scan type : Interlaced
Scan order : Top Field First
Bits/(Pixel*Frame) : 0.047
Stream size : 2.99 GiB (91%)
Title : Budte kak doma_HDTV 1080i
Color primaries : BT.709-5, BT.1361, IEC 61966-2-4, SMPTE RP177
Transfer characteristics : BT.709-5, BT.1361
Matrix coefficients : BT.709-5, BT.1361, IEC 61966-2-4 709, SMPTE RP177
Audio #1
ID : 2
Format : AC-3
Format/Info : Audio Coding 3
Mode extension : CM (complete main)
Codec ID : A_AC3
Duration : 1h 26mn
Bit rate mode : Constant
Bit rate : 192 Kbps
Channel(s) : 2 channels
Channel positions : Front: L R
Sampling rate : 48.0 KHz
Bit depth : 16 bits
Stream size : 119 MiB (4%)
Title : Budte kak doma_AC3_2ch_DVO_NTV+
Language : Russian
Audio #2
ID : 3
Format : AC-3
Format/Info : Audio Coding 3
Mode extension : CM (complete main)
Codec ID : A_AC3
Duration : 1h 26mn
Bit rate mode : Constant
Bit rate : 192 Kbps
Channel(s) : 2 channels
Channel positions : Front: L R
Sampling rate : 48.0 KHz
Bit depth : 16 bits
Stream size : 119 MiB (4%)
Title : Budte kak doma_AC3_2ch_original_french
Language : French

Скриншот с названием фильма

Скриншоты



Последний раз редактировалось: zta (2013-08-12 21:59), всего редактировалось 2 раз(а)

Создавать темы 12-Авг-2013 20:02

[Профиль]  [ЛС] 

Топик был перенесен из форума Фильмы за 2011 в форум Зарубежное кино

СтАсИкОс

Создавать темы 12-Авг-2013 20:42

 

СтАсИкОс

Стаж: 6 лет 11 месяцев

Сообщений: 314

Симпатии: 20

Добавьте еще один скриншот и если не сложно, залейте их сюда http://tas-ix.net/gallery.php

Создавать темы 12-Авг-2013 20:44

[Профиль]  [ЛС] 
Показать сообщения:    
Ответить на тему

Текущее время: 16-Дек 06:25

Часовой пояс: UTC + 5



Вы не можете начинать темы
Вы не можете отвечать на сообщения
Вы не можете редактировать свои сообщения
Вы не можете удалять свои сообщения
Вы не можете голосовать в опросах
Вы не можете прикреплять файлы к сообщениям
Вы не можете скачивать файлы