Безумные / The demented (Кристофер Рузвельт / Christopher Roosevelt) [2013, США, ужасы, HDRip] DVO (DeadSno & den904) + Original Eng

Ответить на тему
 

Suxrob89 ®

Стаж: 7 лет 4 месяца

Сообщений: 933

Симпатии: 564

-Безумные / The demented- Страна: США
Жанр: ужасы
Год выпуска: 2013
Продолжительность: 01:32:04
Перевод: Любительский (двухголосый закадровый) DeadSno & den904 по субтитрам А. Кедров
Cубтитры: нет
Оригинальная аудиодорожка: английский-Режиссер: Кристофер Рузвельт / Christopher Roosevelt-В ролях: Кайла Юэлл, Ричард Конке, Эшли Брайн, Бриттни Элгер, Сара Батлер. Майкл Уэлш, Крис Эшворт, Джесси Брукс, , Эшли Диджон, Эммануэль Кинг-Описание: Шестеро друзей-студентов собираются вместе на выходные, где им приходится бороться за свою жизнь после террористической атаки, превратившей местных жителей в яростных зомби...- - -Качество: HDRip
Формат: AVI
Видео кодек: XviD
Аудио кодек: AC3
Видео: XviD, 720x400 (16:9), 23.976 fps, 1 662 Kbps (0.241 bit/pixel)
Аудио 1: MP3, 48.0 KHz, 2 ch, 192 Kbps, CBR Russian
Аудио 2: AC-3, 48.0 KHz, 2 ch, 256 Kbps, CBR English

MediaInfo

F:\Bezumnye.2013.L2.HDRip..avi
General
Complete name : F:\Bezumnye.2013.L2.HDRip..avi
Format : AVI
Format/Info : Audio Video Interleave
File size : 1.37 GiB
Duration : 1h 32mn
Overall bit rate : 2 124 Kbps
Writing application : VirtualDubMod 1.5.10.2 (build 2540/release)
Writing library : VirtualDubMod build 2540/release
Video #0
ID : 0
Format : MPEG-4 Visual
Format profile : Advanced [email protected]
Format settings, BVOP : 2
Format settings, QPel : No
Format settings, GMC : No warppoints
Format settings, Matrix : Default (H.263)
Muxing mode : Packed bitstream
Codec ID : XVID
Codec ID/Hint : XviD
Duration : 1h 32mn
Bit rate : 1 662 Kbps
Width : 720 pixels
Height : 400 pixels
Display aspect ratio : 16:9
Frame rate : 23.976 fps
Color space : YUV
Chroma subsampling : 4:2:0
Bit depth : 8 bits
Scan type : Progressive
Compression mode : Lossy
Bits/(Pixel*Frame) : 0.241
Stream size : 1.07 GiB (78%)
Writing library : XviD 64
Audio #1
ID : 1
Format : MPEG Audio
Format version : Version 1
Format profile : Layer 3
Mode : Joint stereo
Codec ID : 55
Codec ID/Hint : MP3
Duration : 1h 32mn
Bit rate mode : Constant
Bit rate : 192 Kbps
Channel(s) : 2 channels
Sampling rate : 48.0 KHz
Compression mode : Lossy
Stream size : 126 MiB (9%)
Alignment : Aligned on interleaves
Interleave, duration : 42 ms (1.00 video frame)
Interleave, preload duration : 504 ms
Audio #2
ID : 2
Format : AC-3
Format/Info : Audio Coding 3
Mode extension : CM (complete main)
Format settings, Endianness : Big
Codec ID : 2000
Duration : 1h 32mn
Bit rate mode : Constant
Bit rate : 256 Kbps
Channel(s) : 2 channels
Channel positions : Front: L R
Sampling rate : 48.0 KHz
Bit depth : 16 bits
Compression mode : Lossy
Stream size : 169 MiB (12%)
Alignment : Split accross interleaves
Interleave, duration : 42 ms (1.00 video frame)
Interleave, preload duration : 500 ms

Скриншот c названием фильма

Скриншоты

Создавать темы 12-Авг-2013 21:39

[Профиль]  [ЛС] 

TimaK

Стаж: 6 лет 7 месяцев

Сообщений: 129

Симпатии: 23

Эээ опять зомби?

Создавать темы 12-Авг-2013 21:47

[Профиль]  [ЛС] 

СтАсИкОс

Стаж: 6 лет 11 месяцев

Сообщений: 314

Симпатии: 20

Хуже фильма про зомби мир не видывал)

Создавать темы 12-Авг-2013 21:48

[Профиль]  [ЛС] 

jaswik

Стаж: 7 лет 1 месяц

Сообщений: 84

Симпатии: 2

Suxrob89 ® нас подготавливает на просмотр фильма Война миров Z / World War Z в качестве D ))

Создавать темы 13-Авг-2013 15:35

[Профиль]  [ЛС] 

DeFenDer007

Стаж: 4 года 5 месяцев

Сообщений: 191

Симпатии: 9

как филм ?

_________________
Подпись отключена за нарушение правил форума

Создавать темы 13-Авг-2013 17:11

[Профиль]  [ЛС] 

giga

Стаж: 5 лет 6 месяцев

Сообщений: 192

Симпатии: 22

присоединяюсь к раздаче

Создавать темы 13-Авг-2013 18:36

[Профиль]  [ЛС] 

kamaell

Стаж: 4 года 8 месяцев

Сообщений: 14

Отписывайтесь, кто посмотрел уже, рейтинг низкий, качать не думаю, отпишитесь как вам фильм

Создавать темы 14-Авг-2013 12:25

[Профиль]  [ЛС] 

WKD

Стаж: 5 лет 1 месяц

Сообщений: 6

Какое-то прям нашествие зомби, кругом зомби, да зомби... (

Создавать темы 14-Авг-2013 16:49

[Профиль]  [ЛС] 
Показать сообщения:    
Ответить на тему

Текущее время: 16-Дек 14:14

Часовой пояс: UTC + 5



Вы не можете начинать темы
Вы не можете отвечать на сообщения
Вы не можете редактировать свои сообщения
Вы не можете удалять свои сообщения
Вы не можете голосовать в опросах
Вы не можете прикреплять файлы к сообщениям
Вы не можете скачивать файлы