Сезон убийц / Killing Season (Марк Стивен Джонсон) [2013 г., Боевик, Драма, Триллер, BDRip]

Ответить на тему
 

ManchesterUnited ®

Стаж: 5 лет 1 месяц

Сообщений: 21

Сезон убийц / Killing Season
Год выпуска: 2013
Страна: Бельгия, США
Жанр: Боевик, Драма, Триллер
Продолжительность: 01:30:44
Перевод: Любительский (одноголосый)
Режиссер: Марк Стивен Джонсон
В ролях: Джон Траволта, Майло Вентимилья, Роберт Де Ниро, Элизабет Олин, Диана Любенова, Калин Сарменов, Стефан Штерев
Описание: История о ветеранах войны в Боснии — американце и сербе, которые, спустя много лет после событий в Европе, устраивают свою личную Третью мировую войну, пытаясь свести счеты.
Доп. информация:Рейтинг КиноПоиск.Ru: 6.015 (914)
Рейтинг IMDb: 5.2 (5797)
Качество: BDRip
Формат: MKV
Видео кодек: AVC
Аудио кодек: AC-3
Видео: AVC, 5800 Kbps 1280х720
Аудио: AC-3, 384 Kbps, 6 channels, 48.0 KHz, [rus] AC-3, 640 Kbps, 6 channels, 48.0 KHz, [eng]

Media Info

D:\Sezon.ubijc.2013.x264.BDRip(720p).mkv
Format : Matroska
Format version : Version 4 / Version 2
File size : 4.33 GiB
Duration : 1h 30mn
Overall bit rate : 6 826 Kbps
Encoded date : UTC 2010-02-22 21:41:31
Writing application : mkvmerge v5.9.0 ('On The Loose') built on Dec 9 2012 15:37:01
Writing library : libebml v1.3.0 + libmatroska v1.4.0
Video
ID : 1
Format : AVC
Format/Info : Advanced Video Codec
Format profile : [email protected]
Format settings, CABAC : Yes
Format settings, ReFrames : 9 frames
Codec ID : V_MPEG4/ISO/AVC
Duration : 1h 30mn
Bit rate : 5 800 Kbps
Width : 1 280 pixels
Height : 720 pixels
Display aspect ratio : 16:9
Frame rate mode : Constant
Frame rate : 23.976 fps
Color space : YUV
Chroma subsampling : 4:2:0
Bit depth : 8 bits
Scan type : Progressive
Bits/(Pixel*Frame) : 0.262
Stream size : 3.59 GiB (83%)
Writing library : x264 core 68 r1195bm 5d75a9b
Encoding settings : cabac=1 / ref=9 / deblock=1:-1:-1 / analyse=0x3:0x113 / me=umh / subme=7 / psy_rd=0.0:2.0 / mixed_ref=1 / me_range=16 / chroma_me=1 / trellis=2 / 8x8dct=1 / cqm=0 / deadzone=21,11 / chroma_qp_offset=-2 / threads=1 / thread_queue=1 / nr=0 / decimate=1 / mbaff=0 / bframes=6 / b_pyramid=0 / b_adapt=1 / b_bias=0 / direct=1 / wpredb=1 / keyint=250 / keyint_min=25 / scenecut=40 / rc=2pass / bitrate=5800 / ratetol=1.0 / qcomp=0.60 / qpmin=10 / qpmax=51 / qpstep=4 / cplxblur=20.0 / qblur=0.5 / ip_ratio=1.40 / pb_ratio=1.30 / aq=2:1.00
Language : English
Default : Yes
Forced : Yes
Audio #1
ID : 2
Format : AC-3
Format/Info : Audio Coding 3
Mode extension : CM (complete main)
Format settings, Endianness : Big
Codec ID : A_AC3
Duration : 1h 30mn
Bit rate mode : Constant
Bit rate : 384 Kbps
Channel(s) : 6 channels
Channel positions : Front: L C R, Side: L R, LFE
Sampling rate : 48.0 KHz
Bit depth : 16 bits
Compression mode : Lossy
Stream size : 249 MiB (6%)
Language : Russian
Default : Yes
Forced : Yes
Audio #2
ID : 3
Format : AC-3
Format/Info : Audio Coding 3
Mode extension : CM (complete main)
Format settings, Endianness : Big
Codec ID : A_AC3
Duration : 1h 30mn
Bit rate mode : Constant
Bit rate : 640 Kbps
Channel(s) : 6 channels
Channel positions : Front: L C R, Side: L R, LFE
Sampling rate : 48.0 KHz
Bit depth : 16 bits
Compression mode : Lossy
Stream size : 415 MiB (9%)
Language : English
Default : No
Forced : No

Скриншоты




Последний раз редактировалось: ManchesterUnited (2013-08-14 17:58), всего редактировалось 4 раз(а)

Создавать темы 13-Авг-2013 20:49

[Профиль]  [ЛС] 

Дмитриев

Стаж: 7 лет 4 месяца

Сообщений: 139

Симпатии: 12

ManchesterUnited
Ты разделом перепутал тебе сюда http://tas-ix.net/viewforum.php?f=76

Создавать темы 13-Авг-2013 21:47

[Профиль]  [ЛС] 

RavD

Стаж: 4 года 3 месяца

Сообщений: 25

Симпатии: 1

Хороший фильм, мне понравился.

Создавать темы 14-Авг-2013 01:07

[Профиль]  [ЛС] 

tanuki

Стаж: 4 года

Сообщений: 60

Симпатии: 3

Очередное голивудское вранье.

Создавать темы 09-Ноя-2013 14:55

[Профиль]  [ЛС] 
Показать сообщения:    
Ответить на тему

Текущее время: 19-Окт 19:49

Часовой пояс: UTC + 5



Вы не можете начинать темы
Вы не можете отвечать на сообщения
Вы не можете редактировать свои сообщения
Вы не можете удалять свои сообщения
Вы не можете голосовать в опросах
Вы не можете прикреплять файлы к сообщениям
Вы не можете скачивать файлы