Элизиум: Рай не на Земле / Elysium (Нил Бломкамп / Neill Blomkamp) [2013 г., фантастика, боевик, триллер, драма, WEB-DLRip][iTunes]

Страницы :  1, 2  След.

Ответить на тему
 

Suxrob89 ®

Стаж: 7 лет 1 месяц

Сообщений: 933

Симпатии: 564

- -Элизиум: Рай не на Земле / Elysium- Страна: США
Жанр: фантастика, боевик, триллер, драма
Год выпуска: 2013
Продолжительность: 01:49:33
Перевод: Дублированный [Цифровая Лицензия / iTunes Russia]
Оригинальная аудиодорожка: нет-Режиссер: Нил Бломкамп-В ролях: Мэтт Дэймон, Джоди Фостер, Уильям Фихтнер, Талиса Сото, Шарлто Копли, Алиси Брага, Диего Луна, Хосе Пабло Кантильо-Описание: В далёком будущем,настал тот день когда наша планета поглотила всю человеческую рассу,за их деяния на Земле и вот 2154 год,где существует два класса людей: очень богатые,те у которых есть всё и все, живущие на чистой и плодородной, созданной руками человека далеко в космосе, космической станции под названием Элизиум и те остальные,изгои,отбросы общества, живущие на перенаселённой разрушенной Земле.Да да на планете,которая когда то была нам домом,теперь только зовётся,как тюрьма. Безжалостный правительственный чиновник Министр Роудс не остановится ни перед чем,ему нет дела для простых землян и он готов для применения анти-иммиграционных законов,пойти на всё для сохранения роскошного и уютного образа жизни граждан Элизиума. Когда неудачника Макса загоняют в угол, он соглашается взять на себя сложную миссию, которая в случае успеха не только спасёт ему жизнь, но и может привести к равенству этих поляризованных миров.Он готов востановить равновесие,думая о том,что бы увидеть нашу планету как прежде,чистой и заселённой людьми...- -Качество видео: WEB-DLRip
Формат видео: AVI
Видео кодэк: XviD
Аудио кодэк: MP3
Видео: 656x272, 23.976 fps, 757 Kbps
Аудио: MP3, 48 kHz, 2 ch, 128 kbps, 48.0 KHz

MediaInfo

Общее
F:\Elizium.2013.D.WEBDLRip.700MB.avi
   General
      Complete name : F:\Elizium.2013.D.WEBDLRip.700MB.avi
      Format : AVI
      Format/Info : Audio Video Interleave
      File size : 701 MiB
      Duration : 1h 49mn
      Overall bit rate : 895 Kbps
      Writing application : VirtualDubMod 1.5.10.3 | www.virtualdub-fr.org || (build 2550/release)
      Writing library : VirtualDubMod build 2550/release
   Video #0
      ID : 0
      Format : MPEG-4 Visual
      Format profile : Advanced [email protected]
      Format settings, BVOP : 2
      Format settings, QPel : No
      Format settings, GMC : No warppoints
      Format settings, Matrix : Custom
      Codec ID : XVID
      Codec ID/Hint : XviD
      Duration : 1h 49mn
      Source duration : 1h 29mn
      Bit rate : 739 Kbps
      Width : 656 pixels
      Height : 272 pixels
      Display aspect ratio : 2.40:1
      Frame rate : 23.976 fps
      Color space : YUV
      Chroma subsampling : 4:2:0
      Bit depth : 8 bits
      Scan type : Progressive
      Compression mode : Lossy
      Bits/(Pixel*Frame) : 0.173
      Stream size : 472 MiB (67%)
      Writing library : XviD 1.2.1 (UTC 2008-12-04)
   Audio #1
      ID : 1
      Format : MPEG Audio
      Format version : Version 1
      Format profile : Layer 3
      Codec ID : 55
      Codec ID/Hint : MP3
      Duration : 1h 49mn
      Source duration : 1h 29mn
      Bit rate mode : Constant
      Bit rate : 128 Kbps
      Channel(s) : 2 channels
      Sampling rate : 48.0 KHz
      Compression mode : Lossy
      Stream size : 81.8 MiB (12%)
      Alignment : Aligned on interleaves
      Interleave, duration : 42 ms (1.00 video frame)
      Interleave, preload duration : 504 ms
      Writing library : LAME3.99r
      Encoding settings : -m s -V 4 -q 2 -lowpass 17 -b 128

Скриншоты



Последний раз редактировалось: Suxrob89 (2013-11-12 08:14), всего редактировалось 7 раз(а)

Создавать темы 14-Авг-2013 21:29

[Профиль]  [ЛС] 

Lyter King

Стаж: 4 года 11 месяцев

Сообщений: 115

Если фильм как Район №9, то фильм обязателен для просмотра! И сюжет весьма оригинален.
Автору раздачи большое спасибо! Но такие фильмы лучше видеть в качестве.

Создавать темы 15-Авг-2013 11:43

[Профиль]  [ЛС] 

cellular25

Стаж: 5 лет 8 месяцев

Сообщений: 48

фильм ну очень далек от района №9...

Создавать темы 15-Авг-2013 12:51

[Профиль]  [ЛС] 

Senat

Стаж: 6 лет 7 месяцев

Сообщений: 251

фильм ну очень далек от района №9...
да очень далеко написание тоже совсем другой

Создавать темы 15-Авг-2013 13:04

[Профиль]  [ЛС] 

jasur_bek

Стаж: 4 года 3 месяца

Сообщений: 41

Симпатии: 8

Дайте скорость

Создавать темы 15-Авг-2013 17:18

[Профиль]  [ЛС] 

yets

Стаж: 5 лет 11 месяцев

Сообщений: 34

Симпатии: 2

Как качество отпишитесь совсем убогое или смотреть можно?

Создавать темы 18-Авг-2013 11:15

[Профиль]  [ЛС] 

pashu

Стаж: 4 года 1 месяц

Сообщений: 5

судя по скринам качество не оч

Создавать темы 18-Авг-2013 18:11

[Профиль]  [ЛС] 

yets

Стаж: 5 лет 11 месяцев

Сообщений: 34

Симпатии: 2

Подожду лицензию.

Создавать темы 19-Авг-2013 14:48

[Профиль]  [ЛС] 

server10

Стаж: 4 года 5 месяцев

Сообщений: 32

ДА ШУМА МНОГО СМОТРЕВ НЕ ПОЛУЧАЕШ УДОВОЛСТВО

Создавать темы 21-Авг-2013 00:42

[Профиль]  [ЛС] 

Bexruz9997

Стаж: 5 лет 3 месяца

Сообщений: 40

Симпатии: 6

а когда лицуха выйдет??

Создавать темы 24-Авг-2013 00:54

[Профиль]  [ЛС] 

dj_umka_82

Стаж: 4 года 4 месяца

Сообщений: 14

Я качаю релиз от PROPERа качество чуть лучше

Создавать темы 03-Сен-2013 22:51

[Профиль]  [ЛС] 

ExtremeButcher

Стаж: 4 года 3 месяца

Сообщений: 39

Симпатии: 1

в качестве когда будет?

Создавать темы 20-Сен-2013 19:15

[Профиль]  [ЛС] 

Suxrob89 ®

Стаж: 7 лет 1 месяц

Сообщений: 933

Симпатии: 564

Торрент обновлён, чистый звук !!!


Последний раз редактировалось: Suxrob89 (2013-10-26 05:54), всего редактировалось 1 раз

Создавать темы 06-Окт-2013 14:15

[Профиль]  [ЛС] 

Топик был перенесен из форума CamRip\Telesync\SATRip\TVRip в форум Фильмы за 2013 (новинки)

Suxrob89

Создавать темы 06-Окт-2013 14:15

 

sanjaryumagulov

Стаж: 4 года 6 месяцев

Сообщений: 7

Ты специально ждешь пока народ наберётся а только потом встать на раздачу ?

Создавать темы 06-Окт-2013 14:36

[Профиль]  [ЛС] 
Показать сообщения:    
Ответить на тему

Текущее время: 23-Сен 10:38

Часовой пояс: UTC + 5



Вы не можете начинать темы
Вы не можете отвечать на сообщения
Вы не можете редактировать свои сообщения
Вы не можете удалять свои сообщения
Вы не можете голосовать в опросах
Вы не можете прикреплять файлы к сообщениям
Вы не можете скачивать файлы