Лучшее предложение / La migliore offerta (Джузеппе Торнаторе / Giuseppe Tornatore) [2013, триллер, HDRip][Лицензия]

Страницы :  1, 2  След.

Ответить на тему
 

Suxrob89 ®

Стаж: 7 лет 2 месяца

Сообщений: 933

Симпатии: 564

-Лучшее предложение / La migliore offerta- Год выпуска: 2013
Страна: США, Италия, Paco Cinematografica, Warner Bros., Business Location Sudtirol Alto Adige
Жанр: Триллер
Продолжительность: 02:10:58
Перевод: Профессиональный (дублированный)[Лицензия]
Cубтитры: нет
Оригинальная аудиодорожка: нет-Режиссер: Джузеппе Торнаторе-В ролях: Джим Стёрджесс, Дональд Сазерленд, Джеффри Раш, Сильвия Хукс, Филип Джексон, Лия Кебеде, Дермот Краули, Кируна Стамелл, Майлз Ричардсон, Линн Суонсон-Описание: Вергилий Олдман, управляющий директор ведущего аукционного дома. В секретном зале своей виллы, он собрал сотни бесценных картин из разных эпох. Однажды таинственная женщина, скрывающая свою личность, просит продать его антиквариат ее семьи. Но Олдман заинтересован не только предметами старины, его все больше очаровывает сама женщина…- -Качество видео: HDRip
Формат видео: AVI
Видео кодек: XviD
Аудио кодек: AC3
Видео: 1811 Кбит/с, 720x304
Аудио: 6 ch, 448 Кбит/с,48.0khz

MediaInfo

F:\La.migliore.offerta.2013.D.HDRip.2100Mb.avi
General
Complete name : F:\La.migliore.offerta.2013.D.HDRip.2100Mb.avi
Format : AVI
Format/Info : Audio Video Interleave
Format profile : OpenDML
File size : 2.05 GiB
Duration : 2h 9mn
Overall bit rate : 2 266 Kbps
Writing application : VirtualDubMod 1.5.10.2 (build 2540/release)
Writing library : VirtualDubMod build 2540/release
Video #0
ID : 0
Format : MPEG-4 Visual
Format profile : Advanced [email protected]
Format settings, BVOP : 2
Format settings, QPel : No
Format settings, GMC : No warppoints
Format settings, Matrix : Custom
Codec ID : XVID
Codec ID/Hint : XviD
Duration : 2h 9mn
Bit rate : 1 806 Kbps
Width : 720 pixels
Height : 304 pixels
Display aspect ratio : 2.35:1
Frame rate : 24.000 fps
Color space : YUV
Chroma subsampling : 4:2:0
Bit depth : 8 bits
Scan type : Progressive
Compression mode : Lossy
Bits/(Pixel*Frame) : 0.344
Stream size : 1.63 GiB (80%)
Writing library : XviD 1.2.1 (UTC 2008-12-04)
Audio #1
ID : 1
Format : AC-3
Format/Info : Audio Coding 3
Mode extension : CM (complete main)
Format settings, Endianness : Big
Codec ID : 2000
Duration : 2h 9mn
Bit rate mode : Constant
Bit rate : 448 Kbps
Channel(s) : 6 channels
Channel positions : Front: L C R, Side: L R, LFE
Sampling rate : 48.0 KHz
Bit depth : 16 bits
Compression mode : Lossy
Stream size : 415 MiB (20%)
Alignment : Split accross interleaves
Interleave, duration : 42 ms (1.00 video frame)
Interleave, preload duration : 500 ms

Скриншоты



Последний раз редактировалось: Suxrob89 (2013-09-09 00:41), всего редактировалось 2 раз(а)

Создавать темы 15-Авг-2013 06:54

[Профиль]  [ЛС] 

3Dmonster

Стаж: 6 лет 5 месяцев

Сообщений: 18

Стоит качать фильм народ?

Создавать темы 15-Авг-2013 08:40

[Профиль]  [ЛС] 

pashabeliy

Стаж: 5 лет 8 месяцев

Сообщений: 46

3Dmonster, на оценку посмотри, получается стоит

Создавать темы 15-Авг-2013 11:04

[Профиль]  [ЛС] 

trojaninc

Стаж: 4 года 7 месяцев

Сообщений: 18

Фильм Отличный) Из данного жанра лучший фильм за год мне кажется) Советую!

Создавать темы 15-Авг-2013 17:37

[Профиль]  [ЛС] 

Butty

Стаж: 5 лет 1 месяц

Сообщений: 96

Симпатии: 6

Самый классный фильм в таком жанре .. мне очень понравилось .. Ценителям искусства советую

Создавать темы 16-Авг-2013 20:58

[Профиль]  [ЛС] 

aziz2725272

Стаж: 5 лет

Сообщений: 158

Симпатии: 6

Почему имя главное героя третье в списке актеров в раздаче фильма??? bw

Создавать темы 22-Авг-2013 13:06

[Профиль]  [ЛС] 

hunter666

Стаж: 5 лет 1 месяц

Сообщений: 48

Симпатии: 1

нормальный филмец

Создавать темы 23-Авг-2013 22:11

[Профиль]  [ЛС] 

LiX

Стаж: 6 лет 4 месяца

Сообщений: 254

Симпатии: 6

Ух ты! Вот это рейтинг! Качну-ка я этот фильмец!

Создавать темы 23-Авг-2013 22:30

[Профиль]  [ЛС] 

LiX

Стаж: 6 лет 4 месяца

Сообщений: 254

Симпатии: 6

Ваууу! Такой концовки я не ожидал! Этот фильм я запомню на долго! Моя реакция была - ну просто копец!!!

Создавать темы 26-Авг-2013 01:04

[Профиль]  [ЛС] 

Xakker_xxx

Стаж: 5 лет 5 месяцев

Сообщений: 53

Симпатии: 1

тогда я тоже качну

Создавать темы 26-Авг-2013 09:36

[Профиль]  [ЛС] 

sevenst77

Стаж: 5 лет 9 месяцев

Сообщений: 40

Концовка предсказуема

Создавать темы 29-Авг-2013 08:20

[Профиль]  [ЛС] 

vadmin

Стаж: 7 лет 1 месяц

Сообщений: 70

Симпатии: 13

Отличный фильм.

Создавать темы 29-Авг-2013 20:32

[Профиль]  [ЛС] 

power.r

Стаж: 5 лет

Сообщений: 5

Мне тоже понравился.

Создавать темы 31-Авг-2013 00:35

[Профиль]  [ЛС] 

Suxrob89 ®

Стаж: 7 лет 2 месяца

Сообщений: 933

Симпатии: 564

Торрент обновлён до озвучки лицензионного !!!

Создавать темы 09-Сен-2013 00:29

[Профиль]  [ЛС] 

nino

Стаж: 5 лет

Сообщений: 30

а оригинальной дорожки нет?

Создавать темы 14-Сен-2013 15:07

[Профиль]  [ЛС] 
Показать сообщения:    
Ответить на тему

Текущее время: 18-Окт 18:11

Часовой пояс: UTC + 5



Вы не можете начинать темы
Вы не можете отвечать на сообщения
Вы не можете редактировать свои сообщения
Вы не можете удалять свои сообщения
Вы не можете голосовать в опросах
Вы не можете прикреплять файлы к сообщениям
Вы не можете скачивать файлы