1984 / Nineteen Eighty-Four (Майкл Редфорд) [1984 г., Фантастика, триллер, мелодрама, драма, DVDRip]

Ответить на тему
 

Scarpion0990 ®

Стаж: 4 года 8 месяцев

Сообщений: 66

Симпатии: 11

1984 / Nineteen Eighty-Four«The year of the movie. The movie of the year.» Год выпуска: 1984
Жанр: Фантастика, триллер, мелодрама, драма
Продолжительность: 01:50:29
Страна: Великобритания
Язык: Англ. ( ориг. )
Режиссер: Майкл Редфорд
В ролях: Джон Хёрт, Ричард Бертон, Сюзанна Хамильтон, Сирил Кьюсак, Грегор Фишер, Джеймс Уолкер, Эндрю Вильде, Дэвид Тревена, Дэвид Кан, Энтони Бенсон
Описание: Для подавления массовых волнений Океании правящая партия заново воссоздает прошлое и настоящее. За каждым гражданином неусыпно наблюдают, каждому с помощью телевидения промывают мозги. И даже двое любовников вынуждены скрывать свои чувства, поскольку секс и межличностные отношения объявлены вне закона.
Качество: DVDRip
Формат: AVI
Видео кодек: XviD
Аудио кодек: MPEG Audio
Видео: MPEG-4 Visual XviD 592x320 776 Kbps
Аудио: MPEG Audio Layer 3 89.6 Kbps 48 KHz
 

MI

General
      Complete name : odna_tysyacha_devyat'sot_vosem'desyat'_chetvyortyj.avi
      Format : AVI
      Format/Info : Audio Video Interleave
      File size : 694 MiB
      Duration : 1h 50mn
      Overall bit rate mode : Variable
      Overall bit rate : 879 Kbps
      Writing application : Nandub v1.0rc2
      Writing library : Nandub build 1852/release
   Video #0
      ID : 0
      Format : MPEG-4 Visual
      Format settings, BVOP : No
      Format settings, QPel : No
      Format settings, GMC : No warppoints
      Format settings, Matrix : Default (MPEG)
      Codec ID : XVID
      Codec ID/Hint : XviD
      Duration : 1h 50mn
      Bit rate : 776 Kbps
      Width : 592 pixels
      Height : 320 pixels
      Display aspect ratio : 1.85:1
      Frame rate : 23.976 fps
      Color space : YUV
      Chroma subsampling : 4:2:0
      Bit depth : 8 bits
      Scan type : Progressive
      Compression mode : Lossy
      Bits/(Pixel*Frame) : 0.171
      Stream size : 614 MiB (88%)
Audio #1
      ID : 1
      Format : MPEG Audio
      Format version : Version 1
      Format profile : Layer 3
      Codec ID : 55
      Codec ID/Hint : MP3
      Duration : 1h 50mn
      Bit rate mode : Variable
      Bit rate : 89.6 Kbps
      Minimum bit rate : 48.0 Kbps
      Channel(s) : 1 channel
      Sampling rate : 48.0 KHz
      Compression mode : Lossy
      Stream size : 70.8 MiB (10%)
      Alignment : Aligned on interleaves
      Interleave, duration : 24 ms (0.58 video frame)
      Interleave, preload duration : 197 ms
      Writing library : LAME3.92
      Encoding settings : -m m -V 1 -q 2 -lowpass 19.5 --vbr-new -b 48

Скриншоты



Создавать темы 16-Авг-2013 11:05

[Профиль]  [ЛС] 

kamilchik

Стаж: 5 лет 2 месяца

Сообщений: 50

ппц это Оруэлл , я читал в оригинале- шедевр....так оно и выходит Эдварт Сноубол все рассекретил

Создавать темы 15-Янв-2014 19:26

[Профиль]  [ЛС] 

yurko_1997

Стаж: 3 года 8 месяцев

Сообщений: 21

четкий фильм дайте скорости плизз!!!!!!!1

Создавать темы 06-Апр-2014 19:05

[Профиль]  [ЛС] 

oneal

Стаж: 6 лет 5 месяцев

Сообщений: 16

спасибоооо!!!! вот именно то что я искал.. автору респект респект респект

Создавать темы 23-Июл-2014 20:48

[Профиль]  [ЛС] 

[email protected]

Стаж: 6 лет 8 месяцев

Сообщений: 138

Симпатии: 10

Кинга шедевр, сейчас оценим, насколько хорошо сняли фильм).

Создавать темы 14-Сен-2014 14:36

[Профиль]  [ЛС] 

coXZisT

Стаж: 5 лет

Сообщений: 17

Симпатии: 2

я качаю, дайте скорости

Создавать темы 05-Авг-2017 19:53

[Профиль]  [ЛС] 
Показать сообщения:    
Ответить на тему

Текущее время: 26-Сен 05:06

Часовой пояс: UTC + 5



Вы не можете начинать темы
Вы не можете отвечать на сообщения
Вы не можете редактировать свои сообщения
Вы не можете удалять свои сообщения
Вы не можете голосовать в опросах
Вы не можете прикреплять файлы к сообщениям
Вы не можете скачивать файлы