Великий Гэтсби / The Great Gatsby (Баз Лурман / Baz Luhrmann) [2013., драма, мелодрама, BDRip][Лицензия]

Страницы :  1, 2, 3, 4  След.

Ответить на тему
 

Suxrob89 ®

Стаж: 7 лет 1 месяц

Сообщений: 933

Симпатии: 564

-Великий Гэтсби / The Great Gatsby
«Нельзя вернуть прошлое? Ну, конечно, можно!»
- Страна: Австралия, США / Warner Bros. Pictures, Village Roadshow Pictures
Жанр: драма, мелодрама
Год выпуска: 2013
Продолжительность: 02:22:06
Перевод: Дублированный [Лицензия]
Cубтитры: Нет-Режиссер: Баз Лурман / Baz Luhrmann-В ролях: Леонардо ДиКаприо (Jay Gatsby), Тоби Магуайр (Nick Carraway), Кэри Маллиган (Daisy Buchanan), Джоэл Эдгертон (Tom Buchanan), Айла Фишер (Myrtle Wilson), Джейсон Кларк (George Wilson), Амитабх Баччан (Meyer Wolfsheim), Стив Бисли (Dan Cody), Ричард Картер (Herzog), Эделейд Клеменс (Catherine)-Описание: Весной 1922 года, в эпоху разлагающейся морали, блистательного джаза и «королей контрабандного алкоголя», Ник Каррауэй приезжает из Среднего Запада в Нью-Йорк. Преследуя собственную американскую мечту, он селится по соседству с таинственным, известным своими вечеринками миллионером Джеем Гэтсби, а на противоположном берегу бухты проживают его кузина Дэйзи и её муж, повеса и аристократ, Том Бьюкенен. Так Ник оказывается вовлечённым в захватывающий мир богатых — их иллюзий, любви и обманов. Он становится свидетелем происходящего в этом мире и пишет историю невозможной любви, вечных мечтаний и человеческой трагедии, которые являются отражением современных времен и нравов.- -Качество: BDRip [The.Great.Gatsby.2013.1080p.BluRay.AVC.DTS-HD.MA.5.1-PublicHD]
Формат: AVI
Видео кодек: XviD
Аудио кодек: AC3
Видео: 720x304 (2.37:1), 23.976 fps, XviD build 73 ~1268 kbps avg, 0.24 bit/pixel
Аудио: 48 kHz, AC3 Dolby Digital, 2/0 (L,R) ch, ~192.00 kbps avg

MediaInfo

F:\Velikyi_Gatsby_2013_BDRip.avi
General
Complete name : F:\Velikyi_Gatsby_2013_BDRip.avi
Format : AVI
Format/Info : Audio Video Interleave
File size : 1.46 GiB
Duration : 2h 22mn
Overall bit rate : 1 470 Kbps
Writing application : VirtualDubMod 1.5.10.3 | www.virtualdub-fr.org || (build 2550/release)
Writing library : VirtualDubMod build 2550/release
Video #0
ID : 0
Format : MPEG-4 Visual
Format profile : Advanced [email protected]
Format settings, BVOP : 1
Format settings, QPel : No
Format settings, GMC : No warppoints
Format settings, Matrix : Custom
Codec ID : XVID
Codec ID/Hint : XviD
Duration : 2h 22mn
Bit rate : 1 269 Kbps
Width : 720 pixels
Height : 304 pixels
Display aspect ratio : 2.35:1
Frame rate : 23.976 fps
Color space : YUV
Chroma subsampling : 4:2:0
Bit depth : 8 bits
Scan type : Progressive
Compression mode : Lossy
Bits/(Pixel*Frame) : 0.242
Stream size : 1.26 GiB (86%)
Writing library : XviD 73
Audio #1
ID : 1
Format : AC-3
Format/Info : Audio Coding 3
Mode extension : CM (complete main)
Format settings, Endianness : Big
Codec ID : 2000
Duration : 2h 22mn
Bit rate mode : Constant
Bit rate : 192 Kbps
Channel(s) : 2 channels
Channel positions : Front: L R
Sampling rate : 48.0 KHz
Bit depth : 16 bits
Compression mode : Lossy
Stream size : 195 MiB (13%)
Alignment : Split accross interleaves
Interleave, duration : 42 ms (1.00 video frame)
Interleave, preload duration : 500 ms

Скриншоты




торрент обновлён до озвучки лицензии !!!


Последний раз редактировалось: Suxrob89 (2013-09-07 07:49), всего редактировалось 4 раз(а)

Создавать темы 16-Авг-2013 18:27

[Профиль]  [ЛС] 

Иви

Стаж: 5 лет 8 месяцев

Сообщений: 688

Симпатии: 65

подправил шапку

Создавать темы 16-Авг-2013 18:57

[Профиль]  [ЛС] 

T-mah

Стаж: 5 лет 8 месяцев

Сообщений: 9

присоединился к раздаче! bv

Создавать темы 16-Авг-2013 22:59

[Профиль]  [ЛС] 

Marlon

Стаж: 4 года 4 месяца

Сообщений: 11

Мужики не уходите с раздачи!

Создавать темы 17-Авг-2013 02:19

[Профиль]  [ЛС] 

bobur2911

Стаж: 7 лет 3 месяца

Сообщений: 37

Симпатии: 1

Фильм Супер 10.0

Создавать темы 17-Авг-2013 09:01

[Профиль]  [ЛС] 

Gainer

Стаж: 5 лет 3 месяца

Сообщений: 28

нифига он не великий, я ожидал большего

Создавать темы 18-Авг-2013 18:52

[Профиль]  [ЛС] 

glenn_quagmire

Стаж: 5 лет 7 месяцев

Сообщений: 34

сюжет унылое ..амно , снят фильм нормально красочно.

Создавать темы 18-Авг-2013 22:15

[Профиль]  [ЛС] 

glenn_quagmire

Стаж: 5 лет 7 месяцев

Сообщений: 34

Фильм весь притормаживает, скажите это изза риповки???

Создавать темы 18-Авг-2013 22:15

[Профиль]  [ЛС] 

Marlon

Стаж: 4 года 4 месяца

Сообщений: 11

шедевральное кино!

Создавать темы 18-Авг-2013 23:56

[Профиль]  [ЛС] 

skyrocker

Стаж: 5 лет 7 месяцев

Сообщений: 96

Симпатии: 3

достойный фильм, Лео молодец и Тоби тоже.

Создавать темы 20-Авг-2013 23:47

[Профиль]  [ЛС] 

tyupac

Стаж: 5 лет

Сообщений: 30

ребята да встаньте вы уже на раздачу!

Создавать темы 21-Авг-2013 22:07

[Профиль]  [ЛС] 

LiX

Стаж: 6 лет 4 месяца

Сообщений: 254

Симпатии: 6

Только что посмотрел фильм и как же всё-таки было трудно наблюдать за этим порочным миром и всеми людьми окружающие тебя только ради денег и за единственным другом которому всё это безразлично и он уважает тебя истинно!
Эх печально стало. Фильм понравился - всё было очень красочным!
Спасибо Сухробу!!!

Создавать темы 24-Авг-2013 23:53

[Профиль]  [ЛС] 

CREDO_2006

Стаж: 5 лет 7 месяцев

Сообщений: 19

Симпатии: 1

Лео красавчик !!! Суппер фильм !!!

Создавать темы 26-Авг-2013 09:10

[Профиль]  [ЛС] 

Jaxa blade

Стаж: 4 года 7 месяцев

Сообщений: 18

Симпатии: 2

Фильм хороший судя по составу )))) Но подожду лицензии)))

Создавать темы 26-Авг-2013 22:35

[Профиль]  [ЛС] 

FissleR

Стаж: 6 лет 3 месяца

Сообщений: 94

фильм стоит посмотреть
но надо ждать лицуху!

Создавать темы 26-Авг-2013 22:44

[Профиль]  [ЛС] 
Показать сообщения:    
Ответить на тему

Текущее время: 24-Сен 15:34

Часовой пояс: UTC + 5



Вы не можете начинать темы
Вы не можете отвечать на сообщения
Вы не можете редактировать свои сообщения
Вы не можете удалять свои сообщения
Вы не можете голосовать в опросах
Вы не можете прикреплять файлы к сообщениям
Вы не можете скачивать файлы