Железный человек 3 / Iron Man 3 (Шейн Блэк) [2013, США, Китай, фантастика, боевик, триллер, WEB-DLRip] Dub

Ответить на тему
 

Suxrob89 ®

Стаж: 7 лет 1 месяц

Сообщений: 933

Симпатии: 564

-Железный человек 3 / Iron Man 3-«Герой будет сражен»- Год выпуска: 2013
Страна: США, Китай
Жанр: фантастика, боевик, триллер
Продолжительность: 02:11:18
Перевод: Профессиональный (дублированный) iTunes Russia
Cубтитры: Вшитые отключаемые
Язык субтитров: Русский (форс., полные), Украинский (форс., полные)-Режиссер: Шейн Блэк-В ролях: Роберт Дауни мл., Гвинет Пэлтроу, Дон Чидл, Гай Пирс, Бен Кингсли, Ребекка Холл, Пол Беттани, Джон Фавро, Уильям Сэдлер, Джеймс Бэдж Дэйл-Описание: Когда мир Старка рушится на его глазах по вине неизвестных противников, Тони жаждет найти виновных и свести с ними счеты. Оказавшись в безвыходной ситуации, Старк может рассчитывать только на себя и свою изобретательность, чтобы защитить тех, кто ему дорог. Это становится настоящим испытанием для героя, которому придется не только сражаться с коварным врагом, но и разобраться в себе, чтобы найти ответ на вопрос, который давно его тревожит: что важнее — человек или костюм?- -Качество видео: WEB-DLRip
Формат видео: MKV
Видео: MPEG-4 AVC/H.264, 960 x 400, ~1797 Kbit/s
Aудио #1: AC3, 48,0 КHz, 5.1, 384 Kbit/s - Русский
Аудио #2: AC3, 48,0 КHz, 2.0, 192 Kbit/s - Украинский

Media Info

F:\Æåëåçíûé ÷åëîâåê 3.2013.BDRip.AVC.mkv
General
Unique ID : 191220554119996936932283661140852598698 (0x8FDBBD36B82C7237B28DF51E1E29E7AA)
Complete name : F:\Железный человек 3.2013.BDRip.AVC.mkv
Format : Matroska
Format version : Version 4 / Version 2
File size : 2.18 GiB
Duration : 2h 11mn
Overall bit rate : 2 372 Kbps
Movie name : Iron Man 3 (2013) - Release for HDCLUB
Encoded date : UTC 2013-08-15 07:02:18
Writing application : mkvmerge v6.1.0 ('Old Devil') built on Mar 4 2013 09:10:42
Writing library : libebml v1.3.0 + libmatroska v1.4.0
Video #1
ID : 1
Format : AVC
Format/Info : Advanced Video Codec
Format profile : [email protected]
Format settings, CABAC : Yes
Format settings, ReFrames : 9 frames
Codec ID : V_MPEG4/ISO/AVC
Duration : 2h 11mn
Bit rate : 1 797 Kbps
Width : 960 pixels
Height : 400 pixels
Display aspect ratio : 2.40:1
Frame rate mode : Constant
Frame rate : 23.976 fps
Color space : YUV
Chroma subsampling : 4:2:0
Bit depth : 8 bits
Scan type : Progressive
Bits/(Pixel*Frame) : 0.195
Stream size : 1.60 GiB (74%)
Writing library : x264 core 130 r2273 b3065e6
Encoding settings : cabac=1 / ref=9 / deblock=1:-3:-3 / analyse=0x3:0x113 / me=umh / subme=9 / psy=1 / psy_rd=1.00:0.00 / mixed_ref=1 / me_range=32 / chroma_me=1 / trellis=1 / 8x8dct=1 / cqm=0 / deadzone=21,11 / fast_pskip=1 / chroma_qp_offset=-2 / threads=6 / lookahead_threads=1 / sliced_threads=0 / nr=0 / decimate=1 / interlaced=0 / bluray_compat=0 / constrained_intra=0 / bframes=9 / b_pyramid=2 / b_adapt=1 / b_bias=0 / direct=3 / weightb=1 / open_gop=0 / weightp=2 / keyint=250 / keyint_min=23 / scenecut=40 / intra_refresh=0 / rc_lookahead=40 / rc=2pass / mbtree=1 / bitrate=1797 / ratetol=1.0 / qcomp=0.60 / qpmin=0 / qpmax=69 / qpstep=4 / cplxblur=20.0 / qblur=0.5 / ip_ratio=1.40 / aq=1:1.00
Language : English
Default : Yes
Forced : No
Audio #2
ID : 2
Format : AC-3
Format/Info : Audio Coding 3
Mode extension : CM (complete main)
Format settings, Endianness : Big
Codec ID : A_AC3
Duration : 2h 11mn
Bit rate mode : Constant
Bit rate : 384 Kbps
Channel(s) : 6 channels
Channel positions : Front: L C R, Side: L R, LFE
Sampling rate : 48.0 KHz
Bit depth : 16 bits
Compression mode : Lossy
Stream size : 361 MiB (16%)
Title : AC3 5.1 @ 384 kbps DUB, iTunes
Language : Russian
Default : Yes
Forced : No
Audio #3
ID : 3
Format : AC-3
Format/Info : Audio Coding 3
Mode extension : CM (complete main)
Format settings, Endianness : Big
Codec ID : A_AC3
Duration : 2h 11mn
Bit rate mode : Constant
Bit rate : 192 Kbps
Channel(s) : 2 channels
Channel positions : Front: L R
Sampling rate : 48.0 KHz
Bit depth : 16 bits
Compression mode : Lossy
Stream size : 180 MiB (8%)
Title : AC3 2.0 @ 192 kbps DUB, iTunes
Language : Ukrainian
Default : No
Forced : No
Text #4
ID : 4
Format : UTF-8
Codec ID : S_TEXT/UTF8
Codec ID/Info : UTF-8 Plain Text
Title : Forced
Language : Russian
Default : Yes
Forced : Yes
Text #5
ID : 5
Format : UTF-8
Codec ID : S_TEXT/UTF8
Codec ID/Info : UTF-8 Plain Text
Title : Full
Language : Russian
Default : No
Forced : No
Text #6
ID : 6
Format : UTF-8
Codec ID : S_TEXT/UTF8
Codec ID/Info : UTF-8 Plain Text
Title : Forced
Language : Ukrainian
Default : No
Forced : No
Text #7
ID : 7
Format : UTF-8
Codec ID : S_TEXT/UTF8
Codec ID/Info : UTF-8 Plain Text
Title : Full
Language : Ukrainian
Default : No
Forced : No

Скриншоты



Последний раз редактировалось: Suxrob89 (2013-08-16 20:22), всего редактировалось 2 раз(а)

Создавать темы 16-Авг-2013 18:40

[Профиль]  [ЛС] 

Suxrob89 ®

Стаж: 7 лет 1 месяц

Сообщений: 933

Симпатии: 564

Создавать темы 16-Авг-2013 19:01

[Профиль]  [ЛС] 

MAR 10

Стаж: 5 лет

Сообщений: 65

наконец то BD Rip

Создавать темы 16-Авг-2013 19:13

[Профиль]  [ЛС] 

abusaid

Стаж: 4 года 3 месяца

Сообщений: 32

Симпатии: 3

Молодец амиго. Даёшь скорость?

Создавать темы 16-Авг-2013 19:24

[Профиль]  [ЛС] 

abusaid

Стаж: 4 года 3 месяца

Сообщений: 32

Симпатии: 3

Кстати, ссылаясь на Твой источник обнаружил что это не БДРип а ВэбТВ, тогда измени название

Создавать темы 16-Авг-2013 19:28

[Профиль]  [ЛС] 

Иви

Стаж: 5 лет 8 месяцев

Сообщений: 688

Симпатии: 65

подправьте шапку

Создавать темы 16-Авг-2013 19:54

[Профиль]  [ЛС] 

Топик был перенесен из форума Фильмы за 2013 (новинки) в форум HD-AVC

Иви

Создавать темы 16-Авг-2013 20:10

 

ZeroX

Стаж: 5 лет 5 месяцев

Сообщений: 146

Симпатии: 3

Качество отстой, даже по скринам видно, одни квадараты.

Создавать темы 16-Авг-2013 20:40

[Профиль]  [ЛС] 

root

Стаж: 5 лет 3 месяца

Сообщений: 592

Симпатии: 172

Качество отстой, даже по скринам видно, одни квадараты.
А Чего вы хотели размер всего 2.18 GB

Создавать темы 16-Авг-2013 21:35

[Профиль]  [ЛС] 

ZeroX

Стаж: 5 лет 5 месяцев

Сообщений: 146

Симпатии: 3

JFK, здесь на трэкере есть фильмы с меньшим размером но намного лучшим качеством.

Создавать темы 17-Авг-2013 07:51

[Профиль]  [ЛС] 

root

Стаж: 5 лет 3 месяца

Сообщений: 592

Симпатии: 172

ZeroX, Хочеш качества ну тогда качай 10-и гигабайтный рипы с блюреек, там точно не будет "квадратов"

Создавать темы 18-Авг-2013 00:24

[Профиль]  [ЛС] 

ZeroX

Стаж: 5 лет 5 месяцев

Сообщений: 146

Симпатии: 3

JFK, скачал бы, но Блюр еще не вышел.

Создавать темы 18-Авг-2013 08:18

[Профиль]  [ЛС] 
Показать сообщения:    
Ответить на тему

Текущее время: 20-Сен 08:56

Часовой пояс: UTC + 5



Вы не можете начинать темы
Вы не можете отвечать на сообщения
Вы не можете редактировать свои сообщения
Вы не можете удалять свои сообщения
Вы не можете голосовать в опросах
Вы не можете прикреплять файлы к сообщениям
Вы не можете скачивать файлы