Китайская бабушка (Владимир Тумаев) [2010, комедия, мелодрама, DVDRip]

Ответить на тему
 

refantom ®

Стаж: 5 лет 8 месяцев

Сообщений: 195

Симпатии: 86

Китайская бабушка
Жанр: комедия, мелодрама
Год выпуска: 2010
Страна: Россия
Продолжительность: 01:23:33
Режиссёр: Владимир Тумаев-В ролях: Ирина Муравьева, Нина Русланова, Александр Михайлов, Владимир Толоконников, Кира Крейлис-Петрова
Описание: Все события фильма разворачиваются в маленьком провинциальном городке, во дворе старого, давно не ремонтировавшегося дома. По сюжету герои фильма — небогатые люди, пенсионеры, живущие на одну пенсию. И все их мысли заняты тем, как выжить. Пока к одной из героинь не приезжает сестра. Она увлечена китайской культурой, изучает фэншуй, любит все эти благовония, шелка. Поселившись в доме, она переворачивает жизнь этих стариков и превращает ее в праздник.-Качество видео: DVDRip
Формат видео: AVI
Видео кодек: Xvid
Аудио кодек: AC3
Видео: Xvid 720x384 25.00fps 2140kbps
Аудио: Dolby AC3 48000Hz stereo 192kbps-

MediaInfo

General
Complete name : D:\Video\Kitaiskaya-Babushka-2010-DVDRip.avi
Format : AVI
Format/Info : Audio Video Interleave
File size : 1.37 GiB
Duration : 1h 23mn
Overall bit rate : 2 342 Kbps
Writing application : VirtualDubMod 1.5.10.2 (build 2540/release)
Writing library : VirtualDubMod build 2540/release
Video
ID : 0
Format : MPEG-4 Visual
Format profile : Advanced Simple@L5
Format settings, BVOP : 2
Format settings, QPel : No
Format settings, GMC : No warppoints
Format settings, Matrix : Default (H.263)
Codec ID : XVID
Codec ID/Hint : XviD
Duration : 1h 23mn
Bit rate : 2 140 Kbps
Width : 720 pixels
Height : 384 pixels
Display aspect ratio : 1.875
Frame rate : 25.000 fps
Color space : YUV
Chroma subsampling : 4:2:0
Bit depth : 8 bits
Scan type : Progressive
Compression mode : Lossy
Bits/(Pixel*Frame) : 0.310
Stream size : 1.25 GiB (91%)
Writing library : XviD 1.2.1 (UTC 2008-12-04)
Audio
ID : 1
Format : AC-3
Format/Info : Audio Coding 3
Mode extension : CM (complete main)
Codec ID : 2000
Duration : 1h 23mn
Bit rate mode : Constant
Bit rate : 192 Kbps
Channel(s) : 2 channels
Channel positions : Front: L R
Sampling rate : 48.0 KHz
Bit depth : 16 bits
Compression mode : Lossy
Stream size : 115 MiB (8%)
Alignment : Split accross interleaves
Interleave, duration : 40 ms (1.00 video frame)
Interleave, preload duration : 500 ms

Скриншоты






_________________
Подпись отключена за нарушение правил форума


Последний раз редактировалось: refantom (2013-08-17 10:02), всего редактировалось 2 раз(а)

Создавать темы 17-Авг-2013 07:17

[Профиль]  [ЛС] 

Топик был перенесен из форума Фильмы за 2010 в форум Фильмы за 2010

СтАсИкОс

Создавать темы 17-Авг-2013 08:52

 

фаррух

Стаж: 6 лет 10 месяцев

Сообщений: 9

первый скрин приколол надпись на автобусе прям жизненый цикл человека

Создавать темы 17-Авг-2013 08:53

[Профиль]  [ЛС] 

СтАсИкОс

Стаж: 6 лет 9 месяцев

Сообщений: 314

Симпатии: 20

Немного подправил описание

Создавать темы 17-Авг-2013 08:55

[Профиль]  [ЛС] 

refantom ®

Стаж: 5 лет 8 месяцев

Сообщений: 195

Симпатии: 86

первый скрин приколол надпись на автобусе прям жизненый цикл человека
Ага, так оно и бывает по жизни: Роддом, Школа, Поликлиника, Кладбище :)

_________________
Подпись отключена за нарушение правил форума

Создавать темы 17-Авг-2013 11:09

[Профиль]  [ЛС] 

Astrolog

Стаж: 5 лет 4 месяца

Сообщений: 213

Симпатии: 27

первый скрин приколол надпись на автобусе прям жизненый цикл человека
Ага, так оно и бывает по жизни: Роддом, Школа, Поликлиника, Кладбище :)
На то и было рассчитано авторами...
Замечательное замечание... ;)

Создавать темы 17-Авг-2013 11:29

[Профиль]  [ЛС] 

vintage

Стаж: 5 лет 9 месяцев

Сообщений: 13

Друзья, кто скачал, встаньте на раздачу

Создавать темы 10-Фев-2014 00:49

[Профиль]  [ЛС] 
Показать сообщения:    
Ответить на тему

Текущее время: 21-Окт 04:32

Часовой пояс: UTC + 5



Вы не можете начинать темы
Вы не можете отвечать на сообщения
Вы не можете редактировать свои сообщения
Вы не можете удалять свои сообщения
Вы не можете голосовать в опросах
Вы не можете прикреплять файлы к сообщениям
Вы не можете скачивать файлы