Мечтатели / The Dreamers (Бернардо Бертолуччи) [2003., драма, мелодрама, история, BDRip]

Ответить на тему
 

Umrbek 1979 ®

Стаж: 6 лет 2 месяца

Сообщений: 12

Симпатии: 4

Мечтатели / The Dreamers«Вместе - всё возможно. Вместе - ничто не запрещено.»-
Год выпуска: 2003
Страна: Великобритания , Франция , Италия
Жанр: драма, мелодрама, история
Продолжительность: 01:49:42
Перевод: Профессиональный (многоголосый закадровый) + Оригинал -Режиссер: Бернардо Бертолуччи
Сценарий: Гилберт Адэр
Продюсер: Джереми Томас, Геркулес Беллвилл, Джон Бернард, ...
Оператор: Фабио Чанкетти
Художник: Жан Рабасс, Пьер Дюбуаберранже, Луиз Стьернсворд
Монтаж: Джакопо Куадри-В ролях: Майкл Питт / Michael Pitt (Matthew), Ева Грин / Eva Green (Isabelle), Луи Гаррель / Louis Garrel (Theo), Анна Чэнселлор / Anna Chancellor (Mother), Робен Ренуччи / Robin Renucci (Father), Жан-Пьер Кальфон / Jean-Pierre Kalfon (играет самого себя), Жан-Пьер Лео / Jean-Pierre Leaud (в титрах: Jean-Paul Leaud) (играет самого себя), Флориан Кадиу / Florian Cadiou (Patrick)-Описание: Париж, 1968 год — демонстрации студентов, баррикады на улицах, в воздухе пахнет революцией: Но у трех молодых людей — своя реальность, свой мир — мир кино. Дни и ночи напролет они смотрят фильмы и не выходят из дома…Кино стало их жизнью. Сначала это просто увлечение, потом — сложная паутина психологических и сексуальных отношений. Между тем, беспорядки на улицах Парижа достигают своей кульминации…- Лицам до 17 лет просмотр запрещен
-Качество: BDRip
Формат: AVI
Видео кодек: XviD
Аудио кодеk: AC3
Видео: 720x400 (16:9), 25.000 fps, XviD, 1 934 Kbps
Аудио: AC3, 448 Kbps, 48.0 KHz, 6 ch - |Russian|
Аудио #2: AC3, 448 Kbps, 48.0 KHz, 6 ch - |English|

МедиаИнфо

General
Complete name                    : Mechtateli.2003.DUAL.BDRip.XviD.AC3.-HQCLUB.avi
Format                           : AVI
Format/Info                      : Audio Video Interleave
Format profile                   : OpenDML
File size                        : 2.18 GiB
Duration                         : 1h 49mn
Overall bit rate                 : 2 848 Kbps
Movie name                       : The Dreamers (2003) BDRip
Director                         : DaniLch
Genre                            : Drama/Romance/History
Writing application              : VirtualDubMod 1.5.10.2 (build 2542/release)
Copyright                        : http://hqclub.net/
Comment                          : R.G. HQCLUB
Video
ID                               : 0
Format                           : MPEG-4 Visual
Format profile                   : Advanced [email protected]
Format settings, BVOP            : Yes
Format settings, QPel            : No
Format settings, GMC             : No warppoints
Format settings, Matrix          : Custom
Codec ID                         : XVID
Codec ID/Hint                    : XviD
Duration                         : 1h 49mn
Bit rate                         : 1 934 Kbps
Width                            : 720 pixels
Height                           : 400 pixels
Display aspect ratio             : 16:9
Frame rate                       : 25.000 fps
Color space                      : YUV
Chroma subsampling               : 4:2:0
Bit depth                        : 8 bits
Scan type                        : Progressive
Bits/(Pixel*Frame)               : 0.269
Stream size                      : 1.48 GiB (68%)
Writing library                  : XviD 64
Audio #1
ID                               : 1
Format                           : AC-3
Format/Info                      : Audio Coding 3
Mode extension                   : CM (complete main)
Codec ID                         : 2000
Duration                         : 1h 49mn
Bit rate mode                    : Constant
Bit rate                         : 448 Kbps
Channel(s)                       : 6 channels
Channel positions                : Front: L C R, Side: L R, LFE
Sampling rate                    : 48.0 KHz
Bit depth                        : 16 bits
Stream size                      : 352 MiB (16%)
Alignment                        : Split accross interleaves
Interleave, duration             : 40 ms (1.00 video frame)
Interleave, preload duration     : 500 ms
Audio #2
ID                               : 2
Format                           : AC-3
Format/Info                      : Audio Coding 3
Mode extension                   : CM (complete main)
Codec ID                         : 2000
Duration                         : 1h 49mn
Bit rate mode                    : Constant
Bit rate                         : 448 Kbps
Channel(s)                       : 6 channels
Channel positions                : Front: L C R, Side: L R, LFE
Sampling rate                    : 48.0 KHz
Bit depth                        : 16 bits
Stream size                      : 352 MiB (16%)
Alignment                        : Split accross interleaves
Interleave, duration             : 40 ms (1.00 video frame)
Interleave, preload duration     : 500 ms

Скриншоты





Последний раз редактировалось: Umrbek 1979 (2013-08-17 14:28), всего редактировалось 1 раз

Создавать темы 17-Авг-2013 13:53

[Профиль]  [ЛС] 

Иви

Стаж: 5 лет 8 месяцев

Сообщений: 688

Симпатии: 65

все изображения залейте на один из разрешенных хостингов, список разрешенных хостингов тут - http://tas-ix.net/viewtopic.php?t=42862

Создавать темы 17-Авг-2013 14:22

[Профиль]  [ЛС] 

Иви

Стаж: 5 лет 8 месяцев

Сообщений: 688

Симпатии: 65

шапку чуть подправил

Создавать темы 17-Авг-2013 14:29

[Профиль]  [ЛС] 

Топик был перенесен из форума Фильмы за 2010 в форум Зарубежное кино

Иви

Создавать темы 17-Авг-2013 14:30

 

Umrbek 1979 ®

Стаж: 6 лет 2 месяца

Сообщений: 12

Симпатии: 4

спасибо за помощь ИВИ

Создавать темы 17-Авг-2013 14:51

[Профиль]  [ЛС] 

Sinatro

Стаж: 5 лет 8 месяцев

Сообщений: 117

Симпатии: 2

автор это эротика?

Создавать темы 17-Авг-2013 15:37

[Профиль]  [ЛС] 

Иви

Стаж: 5 лет 8 месяцев

Сообщений: 688

Симпатии: 65

Жанр: драма, мелодрама, история

Создавать темы 17-Авг-2013 15:47

[Профиль]  [ЛС] 

polat

Стаж: 7 лет

Сообщений: 9

Жанр: драма, мелодрама, история

Создавать темы 17-Авг-2013 15:52

[Профиль]  [ЛС] 

nigga22480

Стаж: 7 лет 4 месяца

Сообщений: 211

Симпатии: 13

Ева Грин / Eva Green в этом фильме с ней голая сцена!!!

Создавать темы 17-Авг-2013 18:59

[Профиль]  [ЛС] 

Tiar17

Стаж: 6 лет

Сообщений: 83

Симпатии: 5

скачал с киномана , его не дождешься.

Создавать темы 26-Авг-2013 12:49

[Профиль]  [ЛС] 

sanjar0049

Стаж: 5 лет 5 месяцев

Сообщений: 35

Симпатии: 1

помогите докачать пожалуйста.осталось меньше 6%

Создавать темы 30-Июн-2014 14:20

[Профиль]  [ЛС] 

david

Стаж: 7 лет 3 месяца

Сообщений: 467

Симпатии: 12

нашел копию с рутрекера,но там размер 7.5Гб... в общем кому надо,создайте раздачу.
как закачаю встану)
http://rutracker.org/forum/viewtopic.php?t=3629105

Создавать темы 01-Июл-2014 12:43

[Профиль]  [ЛС] 

sanjar0049

Стаж: 5 лет 5 месяцев

Сообщений: 35

Симпатии: 1

третьий день уже завис на 94.2%.помогитеее!!!!

Создавать темы 02-Июл-2014 12:15

[Профиль]  [ЛС] 

Aventador29

Стаж: 10 месяцев 1 день

Сообщений: 1

Го на раздачу ребят

Создавать темы 08-Июл-2017 09:14

[Профиль]  [ЛС] 
Показать сообщения:    
Ответить на тему

Текущее время: 27-Сен 03:45

Часовой пояс: UTC + 5



Вы не можете начинать темы
Вы не можете отвечать на сообщения
Вы не можете редактировать свои сообщения
Вы не можете удалять свои сообщения
Вы не можете голосовать в опросах
Вы не можете прикреплять файлы к сообщениям
Вы не можете скачивать файлы