Воображариум / Imaginaerum (Стобе Харью) [2012, Мюзикл, фэнтези, драма, HDRip] Dub - Чистый звук

Ответить на тему
 

Grock ®

Стаж: 6 лет 10 месяцев

Сообщений: 637

Симпатии: 113

-Воображариум / Imaginaerum
Название: Воображариум
Оригинальное название: Imaginaerum
Год выпуска: 2012
Жанр: Мюзикл, фэнтези, драма
Выпущено: Финляндия, Канада
Продолжительность: 01:25:44
Озвучивание: Дублированное [Чистый звук]
Режиссер: Стобе Харью
В ролях: Марианн Фарли, Куинн Лорд, Фрэнсис З. МакКарти, Илка Вилли, Джоэнна Нойес, Кеянна Филдинг, Стефани Демерс, Рон Лиа, Хелен Робитейлл, Туомас Холопайнен
Описание: Кто из нас в детстве не мечтал попасть в волшебную страну? В страну, где все возможно. Где исполняются самые несбыточные мечты, встречаются необыкновенные существа и происходит самое настоящее Волшебство. Теперь ваши мечты могут осуществиться! Не важно сколько вам лет. Не важно верите ли вы в говорящих снеговиков и в то, что люди могут летать. Просто приоткройте эту дверь и перед вами окажется Воображариум, где все возможно.
Качество: HDRip
Формат: AVI (XviD)
Видео: XviD, 640x272, 23.976 fps, ~ 1001 Kbit/s
Аудио: МР3, 48000 Hz, 2 каналов, 128 kbit/s
КиноПоиск.Ru: 6.72 (1079)
IMDB.com: 5.7 (2483)

Медиа Инфо


E:\Фильмы\Voobrajarium.2012.Dub.HDRip.avi
General
Complete name : E:\Фильмы\Voobrajarium.2012.Dub.HDRip.avi
Format : AVI
Format/Info : Audio Video Interleave
File size : 698 MiB
Duration : 1h 25mn
Overall bit rate : 1 139 Kbps
Writing application : VirtualDubMod 1.5.10.2 (build 2540/release)
Writing library : VirtualDubMod build 2540/release
Video
Format : MPEG-4 Visual
Format profile : Streaming [email protected]
Format settings, BVOP : Yes
Format settings, QPel : No
Format settings, GMC : No warppoints
Format settings, Matrix : Default
Muxing mode : Packed bitstream
Codec ID : XVID
Codec ID/Hint : XviD
Duration : 1h 25mn
Bit rate : 1 001 Kbps
Width : 640 pixels
Height : 272 pixels
Display aspect ratio : 2.35
Frame rate : 23.976 fps
Resolution : 24 bits
Colorimetry : 4:2:0
Scan type : Progressive
Bits/(Pixel*Frame) : 0.240
Stream size : 614 MiB (88%)
Writing library : XviD 1.2.0.dev47 (UTC 2006-11-01)
Audio
Format : MPEG Audio
Format version : Version 1
Format profile : Layer 3
Codec ID : 55
Codec ID/Hint : MP3
Duration : 1h 25mn
Bit rate mode : Constant
Bit rate : 128 Kbps
Channel(s) : 2 channels
Sampling rate : 48.0 KHz
Resolution : 16 bits
Stream size : 78.5 MiB (11%)
Alignment : Aligned on interleaves
Interleave, duration : 42 ms (1.00 video frame)
Interleave, preload duration : 504 ms

Скриншоты



Создавать темы 19-Авг-2013 08:03

[Профиль]  [ЛС] 

Aracurd

Стаж: 4 года 7 месяцев

Сообщений: 48

Симпатии: 11

озвучка чья?

Создавать темы 19-Авг-2013 12:53

[Профиль]  [ЛС] 

Aracurd

Стаж: 4 года 7 месяцев

Сообщений: 48

Симпатии: 11

а так мы берём спс релизеру давно ждал!!!

Создавать темы 19-Авг-2013 12:53

[Профиль]  [ЛС] 

Aracurd

Стаж: 4 года 7 месяцев

Сообщений: 48

Симпатии: 11

чё за фигня?105 мб и остановилась раздача?между прочем не только у меня!!!

Создавать темы 19-Авг-2013 16:23

[Профиль]  [ЛС] 

Grock ®

Стаж: 6 лет 10 месяцев

Сообщений: 637

Симпатии: 113

Aracurd, Не ругайтесь. Извиняюсь за неудобства, сейчас на работе, вечером, к 8 ми вернусь раздам до конца zd

Создавать темы 19-Авг-2013 17:46

[Профиль]  [ЛС] 

Grock ®

Стаж: 6 лет 10 месяцев

Сообщений: 637

Симпатии: 113

Воображариум / Imaginaerum (Стобе Харью) [2012, Фэнтези, Приключения, Мьюзикл, Драма, HDRip-AVC] [Лицензия]

Создавать темы 27-Авг-2013 20:27

[Профиль]  [ЛС] 
Показать сообщения:    
Ответить на тему

Текущее время: 15-Дек 03:42

Часовой пояс: UTC + 5



Вы не можете начинать темы
Вы не можете отвечать на сообщения
Вы не можете редактировать свои сообщения
Вы не можете удалять свои сообщения
Вы не можете голосовать в опросах
Вы не можете прикреплять файлы к сообщениям
Вы не можете скачивать файлы