Добро пожаловать в мотель Бейтса / The Bates Haunting (Байрон Турк / Byron Turk) [2012, США, триллер, WEB-DLRip] DVO + Original Eng

Ответить на тему
 

Suxrob89 ®

Стаж: 7 лет 3 месяца

Сообщений: 933

Симпатии: 564

-Добро пожаловать в мотель Бейтса / The Bates Haunting-«Some things are best left alone»- Страна: США
Жанр: триллер
Год выпуска: 2012
Продолжительность: 01:17:38
Перевод: Любительский (двухголосый закадровый) [DeadSno & den904]
Cубтитры: нет
Оригинальная аудиодорожка: английский-Режиссер: Байрон Турк / Byron Turk-В ролях: Норман Хиллбиш, Жан Луиз О’Салливан, Захари Флетчер, Райан Данн, Рокко А. Амато, Рэнди Бейтс, Эшли Каспермейер, Джим Коуп, Али Крозье, Карен Экстайн-Саркиссян-Описание: В небольшом городке Грэдивилл, штат Пенсильвания, есть мотель Бейтса. Это местечко — по сути ферма, на территории которой семейка Бейтсов создали самый страшный парк атракционов на тему Хэллоуина в стране. Есть там и лабиринт из стеблей кукурузы, и механические монстры, искусственные привидения, а в шоу задействованно много актеров театрально рубящих и убивающих друг друга. Но в один прекрасный день ужас становится смертельной реальностью, когда один сотрудник оказывается убит во время шоу… Парк закрывают, проходит время. Однажды его вновь открывают и когда парк наполняется народом происходит повторение трагедии, но уже в других масштабах…-Качество видео: WEB-DLRip
Формат видео: AVI
Видео кодек: XviD
Аудио кодек: AC3
Видео: XviD, 1935 kb/s, 720x400 (16:9), 23,9 fps
Аудио: AC3, 192 kb/s (2 ch) Ru
Аудио 2: AC-3, 384 kb/s (6 ch) En

MediaInfo

Общее
Полное имя : E:\The.Bates.Haunting.2012.L2.WEBDLRip.1400Mb.avi
Формат : AVI
Формат/Информация : Audio Video Interleave
Размер файла : 1,37 Гбайт
Продолжительность : 1 ч. 17 м.
Общий поток : 2526 Кбит/сек
Программа кодирования : VirtualDubMod 1.5.10.2 (build 2540/release)
Библиотека кодирования : VirtualDubMod build 2540/release
Видео
Идентификатор : 0
Формат : MPEG-4 Visual
Профиль формата : Advanced [email protected]
Параметр BVOP формата : 2
Параметр QPel формата : Нет
Параметр GMC формата : Без точки перехода
Параметр матрицы формата : Default (MPEG)
Идентификатор кодека : XVID
Идентификатор кодека/Подсказка : XviD
Продолжительность : 1 ч. 17 м.
Битрейт : 1936 Кбит/сек
Ширина : 720 пикселей
Высота : 400 пикселей
Соотношение сторон : 16:9
Частота кадров : 23,976 кадра/сек
Цветовое пространство : YUV
Субдискретизация насыщенности : 4:2:0
Битовая глубина : 8 бит
Тип развёртки : Прогрессивная
Метод сжатия : С потерями
Бит/(Пиксели*Кадры) : 0.280
Размер потока : 1,05 Гбайт (77%)
Библиотека кодирования : XviD 1.2.1 (UTC 2008-12-04)
Аудио #1
Идентификатор : 1
Формат : AC-3
Формат/Информация : Audio Coding 3
Расширение режима : CM (complete main)
Параметр Endianness формата : Big
Идентификатор кодека : 2000
Продолжительность : 1 ч. 17 м.
Вид битрейта : Постоянный
Битрейт : 192 Кбит/сек
Каналы : 2 канала
Расположение каналов : Front: L R
Частота : 48,0 КГц
Битовая глубина : 16 бит
Метод сжатия : С потерями
Размер потока : 107 Мбайт (8%)
Выравнивание : Разделение по промежуткам
Продолжительность промежутка : 42 мс. (1,00 видеокадр)
Время предзагрузки промежутка : 500 мс.
Аудио #2
Идентификатор : 2
Формат : AC-3
Формат/Информация : Audio Coding 3
Расширение режима : CM (complete main)
Параметр Endianness формата : Big
Идентификатор кодека : 2000
Продолжительность : 1 ч. 17 м.
Вид битрейта : Постоянный
Битрейт : 384 Кбит/сек
Каналы : 6 каналов
Расположение каналов : Front: L C R, Side: L R, LFE
Частота : 48,0 КГц
Битовая глубина : 16 бит
Метод сжатия : С потерями
Размер потока : 213 Мбайт (15%)
Выравнивание : Разделение по промежуткам
Продолжительность промежутка : 42 мс. (1,00 видеокадр)
Время предзагрузки промежутка : 500 мс.

Скриншоты



Последний раз редактировалось: Suxrob89 (2013-08-19 23:20), всего редактировалось 1 раз

Создавать темы 19-Авг-2013 21:56

[Профиль]  [ЛС] 

infinity2go

Стаж: 5 лет 10 месяцев

Сообщений: 25

Норман в роли Нормана Бейтса?
интересный сериал или ТВ3 пародия на оригинальный Мотель Бейтсов

Создавать темы 20-Авг-2013 13:00

[Профиль]  [ЛС] 
Показать сообщения:    
Ответить на тему

Текущее время: 23-Ноя 01:09

Часовой пояс: UTC + 5



Вы не можете начинать темы
Вы не можете отвечать на сообщения
Вы не можете редактировать свои сообщения
Вы не можете удалять свои сообщения
Вы не можете голосовать в опросах
Вы не можете прикреплять файлы к сообщениям
Вы не можете скачивать файлы