G-Force / Миссия Дарвина (Хойт Йетмен) [2009 г., Комедия, приключения, семейный, фэнтези. HDRip-AVC]

Ответить на тему
 

AeRoNHanD ®

Стаж: 5 лет 2 месяца

Сообщений: 198

Симпатии: 3

G-Force / Миссия Дарвина
Год выпуска: 2009
Страна: США
Жанр: Комедия,приключения,семейный,фэнтези
Продолжительность: 01:28:16
Перевод: Профессиональный (полное дублирование)

Режиссер: Хойт Йетмен
В ролях: Николас Кейдж, Уилл Арнетт, Сэм Рокуэлл, Пенелопа Крус, Билл Найи, Джон Фавро, Стив Бушеми, Зэк Галифианакис, Келли Гарнер, Трэйси Морган
Описание: «Миссия Дарвина» — это суперкоманда морских свинок, работающих на правительство США. Для выполнения специальных заданий зверьков подготовил один выдающийся ученый, и теперь они могут проникать в места, недоступные для людей, вооружившись самыми современными технологиями.
В спецподразделение входят: Дарвин — командир отряда, спец по коммуникациям; Хуарес — единственная девушка в команде, спец по боевым искусствам; Бластер — «мускулы» команды. Вместе им предстоит разрушить планы злого гения, мечтающего захватить власть над миром.
Качество:HDRip-AVC
Формат: AVC
Видео кодек: AVC/H.264
Видео: 720x304, 1982 Kb/s
Аудио 1: AAC, 2ch. 192 Kb/s | Rus
Аудио 2: AAC, 2ch. 192 Kb/s | Eng
Субтитры: English, Danish, Russian (Внешние)

MediaInfo

General
Complete name : D:\Kino\G_Force_HDRip_2009\G_Force_HDRip_2009.avi
Format : MPEG-4
Format profile : Base Media / Version 2
Codec ID : mp42
File size : 1.46 GiB
Duration : 1h 28mn
Overall bit rate mode : Variable
Overall bit rate : 2 363 Kbps
Encoded date : UTC 2011-11-19 23:28:14
Tagged date : UTC 2011-11-20 00:52:50
Writing application : HandBrake 0.9.5 2011010300
Video
ID : 1
Format : AVC
Format/Info : Advanced Video Codec
Format profile : [email protected]
Format settings, CABAC : Yes
Format settings, ReFrames : 4 frames
Codec ID : avc1
Codec ID/Info : Advanced Video Coding
Duration : 1h 28mn
Bit rate mode : Variable
Bit rate : 1 982 Kbps
Width : 720 pixels
Height : 304 pixels
Display aspect ratio : 2.35:1
Frame rate mode : Variable
Frame rate : 23.976 fps
Minimum frame rate : 11.989 fps
Maximum frame rate : 23.981 fps
Color space : YUV
Chroma subsampling : 4:2:0
Bit depth : 8 bits
Scan type : Progressive
Bits/(Pixel*Frame) : 0.378
Stream size : 1.22 GiB (83%)
Writing library : x264 core 112
Encoding settings : cabac=1 / ref=2 / deblock=1:0:0 / analyse=0x1:0x111 / me=hex / subme=6 / psy=1 / psy_rd=1.00:0.00 / mixed_ref=0 / me_range=16 / chroma_me=1 / trellis=0 / 8x8dct=0 / cqm=0 / deadzone=21,11 / fast_pskip=1 / chroma_qp_offset=-2 / threads=3 / sliced_threads=0 / nr=0 / decimate=1 / interlaced=0 / constrained_intra=0 / bframes=2 / b_pyramid=2 / b_adapt=1 / b_bias=0 / direct=1 / weightb=0 / open_gop=0 / weightp=2 / keyint=240 / keyint_min=23 / scenecut=40 / intra_refresh=0 / rc_lookahead=40 / rc=abr / mbtree=1 / bitrate=1982 / ratetol=1.0 / qcomp=0.60 / qpmin=3 / qpmax=51 / qpstep=4 / ip_ratio=1.40 / aq=1:1.00
Encoded date : UTC 2011-11-19 23:28:14
Tagged date : UTC 2011-11-20 00:52:50
Color primaries : BT.601-6 525, BT.1358 525, BT.1700 NTSC, SMPTE 170M
Transfer characteristics : BT.709-5, BT.1361
Matrix coefficients : BT.601-6 525, BT.1358 525, BT.1700 NTSC, SMPTE 170M
Audio #1
ID : 2
Format : AAC
Format/Info : Advanced Audio Codec
Format profile : LC
Codec ID : 40
Duration : 1h 28mn
Bit rate mode : Variable
Bit rate : 192 Kbps
Maximum bit rate : 269 Kbps
Channel(s) : 2 channels
Channel positions : Front: L R
Sampling rate : 48.0 KHz
Compression mode : Lossy
Stream size : 121 MiB (8%)
Encoded date : UTC 2011-11-19 23:28:14
Tagged date : UTC 2011-11-20 00:52:50
Audio #2
ID : 3
Format : AAC
Format/Info : Advanced Audio Codec
Format profile : LC
Codec ID : 40
Duration : 1h 28mn
Bit rate mode : Variable
Bit rate : 192 Kbps
Maximum bit rate : 348 Kbps
Channel(s) : 2 channels
Channel positions : Front: L R
Sampling rate : 48.0 KHz
Compression mode : Lossy
Stream size : 121 MiB (8%)
Encoded date : UTC 2011-11-19 23:28:14
Tagged date : UTC 2011-11-20 00:52:50

Скриншоты





Последний раз редактировалось: AeRoNHanD (2013-08-21 20:42), всего редактировалось 8 раз(а)

Создавать темы 20-Авг-2013 12:31

[Профиль]  [ЛС] 

AeRoNHanD ®

Стаж: 5 лет 2 месяца

Сообщений: 198

Симпатии: 3

почему раздача не идет от меня????Я торрент заливаю а он ищет пиров!!!Почему??? md

Создавать темы 20-Авг-2013 16:06

[Профиль]  [ЛС] 

AeRoNHanD ®

Стаж: 5 лет 2 месяца

Сообщений: 198

Симпатии: 3

Вот так пишет

Создавать темы 20-Авг-2013 16:08

[Профиль]  [ЛС] 

AeRoNHanD ®

Стаж: 5 лет 2 месяца

Сообщений: 198

Симпатии: 3

Все делал по инструкции

Создавать темы 20-Авг-2013 16:23

[Профиль]  [ЛС] 

victor0778

Стаж: 6 лет 10 месяцев

Сообщений: 1670

Симпатии: 142

AeRoNHanD, надо указать путь тфайлу в директорию с папкой

Создавать темы 20-Авг-2013 21:41

[Профиль]  [ЛС] 

victor0778

Стаж: 6 лет 10 месяцев

Сообщений: 1670

Симпатии: 142

AeRoNHanD, я Вам поправил тех. данные, осталось встать на раздачу

Создавать темы 20-Авг-2013 21:53

[Профиль]  [ЛС] 

AeRoNHanD ®

Стаж: 5 лет 2 месяца

Сообщений: 198

Симпатии: 3

victor0778, папка там же стоит все равно он ищет пиров

Создавать темы 20-Авг-2013 23:02

[Профиль]  [ЛС] 

AeRoNHanD ®

Стаж: 5 лет 2 месяца

Сообщений: 198

Симпатии: 3

Спасибо за паправку))))

Создавать темы 20-Авг-2013 23:03

[Профиль]  [ЛС] 

victor0778

Стаж: 6 лет 10 месяцев

Сообщений: 1670

Симпатии: 142

victor0778, папка там же стоит все равно он ищет пиров
допустим у Вас папка с фильмом лежит на диске D, после скачивания тфайла (Вы же добавляете тфайл скаченый здесь?) Вы его добавляете в торрент и указываете диск D. Пройдёт хеширование файла и будет раздача

Создавать темы 21-Авг-2013 00:02

[Профиль]  [ЛС] 

AeRoNHanD ®

Стаж: 5 лет 2 месяца

Сообщений: 198

Симпатии: 3

Я так и делаю но все равно он ищет пиров я это не понял!!!Может из за того что у меня Teredo не настроен???потому что у меня Хпишка!!!

Создавать темы 21-Авг-2013 00:56

[Профиль]  [ЛС] 

victor0778

Стаж: 6 лет 10 месяцев

Сообщений: 1670

Симпатии: 142

AeRoNHanD, http://tas-ix.net/profile.php?mode=viewprofile&u=31258, ему напишите и он поможет

Создавать темы 21-Авг-2013 09:11

[Профиль]  [ЛС] 

AeRoNHanD ®

Стаж: 5 лет 2 месяца

Сообщений: 198

Симпатии: 3

Хорошо

Создавать темы 21-Авг-2013 17:56

[Профиль]  [ЛС] 

AeRoNHanD ®

Стаж: 5 лет 2 месяца

Сообщений: 198

Симпатии: 3

Все сделал обновите торрент!!!!

Создавать темы 21-Авг-2013 18:10

[Профиль]  [ЛС] 

AeRoNHanD ®

Стаж: 5 лет 2 месяца

Сообщений: 198

Симпатии: 3

victor0778, спасибо вам за внимания!!!! cb

Создавать темы 21-Авг-2013 19:04

[Профиль]  [ЛС] 

AeRoNHanD ®

Стаж: 5 лет 2 месяца

Сообщений: 198

Симпатии: 3

Качающие настройте Teredo а то отдачи не будет!!!!

Создавать темы 24-Авг-2013 00:48

[Профиль]  [ЛС] 
Показать сообщения:    
Ответить на тему

Текущее время: 16-Дек 16:08

Часовой пояс: UTC + 5



Вы не можете начинать темы
Вы не можете отвечать на сообщения
Вы не можете редактировать свои сообщения
Вы не можете удалять свои сообщения
Вы не можете голосовать в опросах
Вы не можете прикреплять файлы к сообщениям
Вы не можете скачивать файлы