Зловещие мертвецы: Черная книга (HD 1080p) / Evil Dead (Федерико Альварес) [2013 г., ужасы, BDRip (1080p)]

Ответить на тему
 

farruh_971212 ®

Стаж: 4 года 10 месяцев

Сообщений: 14

Симпатии: 1

Зловещие мертвецы: Черная книга (HD 1080p) / Evil Dead- Год выпуска: 2013
Страна: США
Жанр: ужасы
Продолжительность: 01:31:18
Перевод: Профессиональный (полное дублирование)-Режиссер: Федерико Альварес-В ролях: Джейн Леви, Шайло Фернандес, Лу Тэйлор Пуччи, Джессика Лукас, Элизабет Блэкмор, Феникс Коннолли, Джим МакЛарти, Сиан Дэвис, Стефен Баттерворф, Карл Виллетц-Описание: Пятеро друзей находят невероятно мощный магический артефакт - "Книгу мертвых". Не в силах преодолеть любопытство, они выпускают в наш мир древнего демона, одержимого жаждой крови. Удастся ли горстке молодых людей противостоять силам зла и остановить кровавую бойню? Современное прочтение "Зловещих мертвецов" от самих создателей этого культового фильма ужасов.-Качество: BDRip (1080p)
Формат: MKV
Видео кодек: H.26x
Аудио кодек: AC3
Видео: MPEG-4 AVC, 18.8 Мбит/с, 1920x804-Аудио:
Аудио: ac3, 48000 Hz, 5.1, s16, 640 kb/s (default), (rus)
Аудио: dts (DTS), 48000 Hz, 5.1, s16, 1536 kb/s, (eng)
Аудио: ac3, 48000 Hz, stereo, s16, 192 kb/s, (eng) |Commentary with Director Fede Alvarez, Writer Rodo Sayagues, Actors Jane Levy, Lou Taylor Pucci and Jessica Lucas|
Субтитры: Russian (Blu-ray CEE), English, English (SDH), English (SDH-COLORED), English (Commentary)

MediaInfo

General
Complete name : I:\Evil.Dead.2013.1080p.BluRay.Rus.2xEng.HDCLUB.mkv
Format : Matroska
Format version : Version 2
File size : 13.5 GiB
Duration : 1h 31mn
Overall bit rate : 21.1 Mbps
Movie name : Evil Dead (2013) - Release for HDCLUB
Encoded date : UTC 2013-07-15 23:21:57
Writing application : mkvmerge v3.4.0 ('Rapunzel') built on May 15 2010 09:38:20
Writing library : libebml v0.8.0 + libmatroska v0.9.0
Video
ID : 1
Format : AVC
Format/Info : Advanced Video Codec
Format profile : [email protected]
Format settings, CABAC : Yes
Format settings, ReFrames : 5 frames
Codec ID : V_MPEG4/ISO/AVC
Duration : 1h 31mn
Bit rate : 18.8 Mbps
Width : 1 920 pixels
Height : 804 pixels
Display aspect ratio : 2.40:1
Frame rate mode : Constant
Frame rate : 23.976 fps
Color space : YUV
Chroma subsampling : 4:2:0
Bit depth : 8 bits
Scan type : Progressive
Bits/(Pixel*Frame) : 0.508
Stream size : 11.7 GiB (87%)
Title : Evil Dead (2013) - Release for HDCLUB
Writing library : x264 core 133 r2334kMod a3ac64b
Encoding settings : cabac=1 / ref=5 / deblock=1:-2:-2 / analyse=0x3:0x133 / me=umh / subme=11 / psy=1 / fade_compensate=0.00 / psy_rd=1.10:0.00 / mixed_ref=1 / me_range=24 / chroma_me=1 / trellis=2 / 8x8dct=1 / cqm=0 / deadzone=21,11 / fast_pskip=0 / chroma_qp_offset=-2 / threads=3 / lookahead_threads=1 / sliced_threads=0 / nr=0 / decimate=0 / interlaced=0 / bluray_compat=0 / constrained_intra=0 / bframes=9 / b_pyramid=2 / b_adapt=2 / b_bias=0 / direct=3 / weightb=1 / open_gop=0 / weightp=2 / keyint=250 / keyint_min=23 / scenecut=40 / intra_refresh=0 / rc_lookahead=60 / rc=2pass / mbtree=0 / bitrate=18800 / ratetol=1.0 / qcomp=0.75 / qpmin=0 / qpmax=69 / qpstep=4 / cplxblur=20.0 / qblur=0.5 / vbv_maxrate=50000 / vbv_bufsize=62500 / nal_hrd=none / ip_ratio=1.30 / pb_ratio=1.10 / aq=3:0.65
Language : English
Default : Yes
Forced : No
Audio #1
ID : 2
Format : AC-3
Format/Info : Audio Coding 3
Mode extension : CM (complete main)
Format settings, Endianness : Big
Codec ID : A_AC3
Duration : 1h 31mn
Bit rate mode : Constant
Bit rate : 640 Kbps
Channel(s) : 6 channels
Channel positions : Front: L C R, Side: L R, LFE
Sampling rate : 48.0 KHz
Bit depth : 16 bits
Compression mode : Lossy
Stream size : 418 MiB (3%)
Title : AC3 5.1 @ 640 kbps - DUB, Blu-ray CEE
Language : Russian
Default : Yes
Forced : No
Audio #2
ID : 3
Format : DTS
Format/Info : Digital Theater Systems
Mode : 16
Format settings, Endianness : Big
Codec ID : A_DTS
Duration : 1h 31mn
Bit rate mode : Constant
Bit rate : 1 509 Kbps
Channel(s) : 6 channels
Channel positions : Front: L C R, Side: L R, LFE
Sampling rate : 48.0 KHz
Bit depth : 24 bits
Compression mode : Lossy
Delay relative to video : 11ms
Stream size : 986 MiB (7%)
Title : DTS 5.1 @ 1536 kbps
Language : English
Default : No
Forced : No
Audio #3
ID : 4
Format : AC-3
Format/Info : Audio Coding 3
Format profile : Dolby Digital
Mode extension : CM (complete main)
Format settings, Endianness : Big
Codec ID : A_AC3
Duration : 1h 31mn
Bit rate mode : Constant
Bit rate : 192 Kbps
Channel(s) : 2 channels
Channel positions : Front: L R
Sampling rate : 48.0 KHz
Bit depth : 16 bits
Compression mode : Lossy
Stream size : 125 MiB (1%)
Title : AC3 2.0 @ 192 kbps - Commentary with Director Fede Alvarez, Writer Rodo Sayagues, Actors Jane Levy, Lou Taylor Pucci and Jessica Lucas
Language : English
Default : No
Forced : No
Text #1
ID : 5
Format : UTF-8
Codec ID : S_TEXT/UTF8
Codec ID/Info : UTF-8 Plain Text
Title : Blu-ray CEE
Language : Russian
Default : No
Forced : No
Text #2
ID : 6
Format : UTF-8
Codec ID : S_TEXT/UTF8
Codec ID/Info : UTF-8 Plain Text
Language : English
Default : No
Forced : No
Text #3
ID : 7
Format : UTF-8
Codec ID : S_TEXT/UTF8
Codec ID/Info : UTF-8 Plain Text
Title : SDH
Language : English
Default : No
Forced : No
Text #4
ID : 8
Format : UTF-8
Codec ID : S_TEXT/UTF8
Codec ID/Info : UTF-8 Plain Text
Title : SDH-COLORED
Language : English
Default : No
Forced : No
Text #5
ID : 9
Format : UTF-8
Codec ID : S_TEXT/UTF8
Codec ID/Info : UTF-8 Plain Text
Title : Commentary
Language : English
Default : No
Forced : No
Menu
00:00:00.000 : en:Chapter 1
00:05:10.310 : en:Chapter 2
00:09:46.085 : en:Chapter 3
00:14:24.030 : en:Chapter 4
00:18:34.030 : en:Chapter 5
00:23:14.310 : en:Chapter 6
00:30:38.045 : en:Chapter 7
00:35:34.799 : en:Chapter 8
00:40:36.476 : en:Chapter 9
00:49:43.480 : en:Chapter 10
00:55:24.238 : en:Chapter 11
01:01:35.191 : en:Chapter 12
01:08:35.778 : en:Chapter 13
01:14:05.983 : en:Chapter 14
01:17:24.974 : en:Chapter 15
01:20:36.248 : en:Chapter 16

Скриншоты






Последний раз редактировалось: farruh_971212 (2013-08-21 08:16), всего редактировалось 6 раз(а)

Создавать темы 20-Авг-2013 19:07

[Профиль]  [ЛС] 

victor0778

Стаж: 6 лет 7 месяцев

Сообщений: 1670

Симпатии: 142

farruh_971212, Укажите разрешения картинки и желательно выложить лог медиа инфо

Создавать темы 20-Авг-2013 21:57

[Профиль]  [ЛС] 

abusaid

Стаж: 4 года 3 месяца

Сообщений: 32

Симпатии: 3

Релизы в ТАКОМ качестве стоило бы оформлять должным и красивым образом. Какую скорость обещаешь?

Создавать темы 20-Авг-2013 23:21

[Профиль]  [ЛС] 

victor0778

Стаж: 6 лет 7 месяцев

Сообщений: 1670

Симпатии: 142

чёт я не понял, медиа инфо Вы с какого фильма сделали? Обитель зла: Проклятие / Resident Evil: Damnation никак не Зловещие мертвецы: Черная книга / Evil Dead

Создавать темы 20-Авг-2013 23:51

[Профиль]  [ЛС] 

victor0778

Стаж: 6 лет 7 месяцев

Сообщений: 1670

Симпатии: 142

farruh_971212, поправил, будьте внимательней в следующий раз

Создавать темы 20-Авг-2013 23:57

[Профиль]  [ЛС] 

farruh_971212 ®

Стаж: 4 года 10 месяцев

Сообщений: 14

Симпатии: 1

victor0778, Извините, поспешил! Спасибо! Добавил MediInfo

Создавать темы 21-Авг-2013 08:17

[Профиль]  [ЛС] 

farruh_971212 ®

Стаж: 4 года 10 месяцев

Сообщений: 14

Симпатии: 1

abusaid, Я в этом деле новенький, это мои первые релизы!

Создавать темы 21-Авг-2013 10:25

[Профиль]  [ЛС] 

Garik80

Стаж: 3 года 11 месяцев

Сообщений: 17

пока не докачал, но все равно спасибо!

Создавать темы 06-Дек-2013 23:52

[Профиль]  [ЛС] 
Показать сообщения:    
Ответить на тему

Текущее время: 21-Сен 13:51

Часовой пояс: UTC + 5



Вы не можете начинать темы
Вы не можете отвечать на сообщения
Вы не можете редактировать свои сообщения
Вы не можете удалять свои сообщения
Вы не можете голосовать в опросах
Вы не можете прикреплять файлы к сообщениям
Вы не можете скачивать файлы