Спокойной ночи, малыши / Saturday morning mistery (Спенсер Парсонс / Spencer Parsons) [2012, США, ужасы, WEB-DLRip] VO [den904]

Ответить на тему
 

Suxrob89 ®

Стаж: 7 лет 2 месяца

Сообщений: 933

Симпатии: 564

-Спокойной ночи, малыши / Saturday morning mistery- Страна: США
Жанр: ужасы
Год выпуска: 2012
Продолжительность: 01:27:51
Перевод: Одноголосый закадровый [den904]
Cубтитры: нет
Оригинальная аудиодорожка: нет-Режиссер: Спенсер Парсонс / Spencer Parsons
В ролях: Жори Балсимо, Эндрю Буйяльски, Мэллори Кулберт, Сонни Карл Дэвис, Жозефин Декер, Крис Дубек, Пол Гордон, Хезер Кафка-Описание: Группа охотников за приведениями специализируется на том, что колесит по всей стране, разрушая легенды о домах с призраками. Работа не очень денежная и, в конечном итоге, ребята оказываются на мели. Но неожиданно они получают выгодное предложение заняться изгнанием призраков из особняка Кайзеров, которые, как поговаривают в округе, занимались сатанизмом и даже умудрились открыть врата в АДЪ! Влекомые острой денежной необходимостью, четверо в лодке, не считая собаки, направляются в особняк, чтобы столкнуться с весьма неожиданными вещами...
Доп. информация:
перевод [chup]
премьера (мир) 16 июня 2012- -Качество видео: WEB-DLRip
Формат видео: AVI
Видео кодек: XviD
Аудио кодек: AC3
Видео: XviD, 720x400 (16:9), 2024 kbps, 23,9 fps
Аудио: AC3, 192 kb/s (2 ch)

MediaInfo

Общее
Полное имя : E:\Spokojnoj.no4i.malyshy.2012.WEBDLRip.1400Mb.avi
Формат : AVI
Формат/Информация : Audio Video Interleave
Размер файла : 1,37 Гбайт
Продолжительность : 1 ч. 27 м.
Общий поток : 2226 Кбит/сек
Программа кодирования : VirtualDubMod 1.5.10.2 (build 2540/release)
Библиотека кодирования : VirtualDubMod build 2540/release
Видео
Идентификатор : 0
Формат : MPEG-4 Visual
Профиль формата : Advanced [email protected]
Параметр BVOP формата : 2
Параметр QPel формата : Нет
Параметр GMC формата : Без точки перехода
Параметр матрицы формата : Default (MPEG)
Идентификатор кодека : XVID
Идентификатор кодека/Подсказка : XviD
Продолжительность : 1 ч. 27 м.
Битрейт : 2025 Кбит/сек
Ширина : 720 пикселей
Высота : 400 пикселей
Соотношение сторон : 16:9
Частота кадров : 23,976 кадра/сек
Цветовое пространство : YUV
Субдискретизация насыщенности : 4:2:0
Битовая глубина : 8 бит
Тип развёртки : Прогрессивная
Метод сжатия : С потерями
Бит/(Пиксели*Кадры) : 0.293
Размер потока : 1,24 Гбайт (91%)
Библиотека кодирования : XviD 1.2.1 (UTC 2008-12-04)
Аудио
Идентификатор : 1
Формат : AC-3
Формат/Информация : Audio Coding 3
Расширение режима : CM (complete main)
Параметр Endianness формата : Big
Идентификатор кодека : 2000
Продолжительность : 1 ч. 27 м.
Вид битрейта : Постоянный
Битрейт : 192 Кбит/сек
Каналы : 2 канала
Расположение каналов : Front: L R
Частота : 48,0 КГц
Битовая глубина : 16 бит
Метод сжатия : С потерями
Размер потока : 121 Мбайт (9%)
Выравнивание : Разделение по промежуткам
Продолжительность промежутка : 42 мс. (1,00 видеокадр)
Время предзагрузки промежутка : 500 мс.

Скриншоты



Последний раз редактировалось: Suxrob89 (2013-08-21 19:34), всего редактировалось 1 раз

Создавать темы 21-Авг-2013 17:34

[Профиль]  [ЛС] 

bob

Стаж: 5 лет 9 месяцев

Сообщений: 42

сюжет на скуби-ду смахивает!

Создавать темы 21-Авг-2013 17:49

[Профиль]  [ЛС] 
Показать сообщения:    
Ответить на тему

Текущее время: 24-Окт 01:53

Часовой пояс: UTC + 5



Вы не можете начинать темы
Вы не можете отвечать на сообщения
Вы не можете редактировать свои сообщения
Вы не можете удалять свои сообщения
Вы не можете голосовать в опросах
Вы не можете прикреплять файлы к сообщениям
Вы не можете скачивать файлы