Пятерка супергероев / Super Buddies (Роберт Винс / Robert Vince) [2013, США, семейный, HDRip][лицензия]

Ответить на тему
 

Suxrob89 ®

Стаж: 7 лет 1 месяц

Сообщений: 933

Симпатии: 564

-Пятерка супергероев / Super Buddies- Страна: США
Киностудия: Walt Disney Studios
Жанр: семейный
Год выпуска: 2013
Продолжительность: 01:20:40
Перевод: Профессиональный (полное дублирование) [лицензия]
Cубтитры: нет
Оригинальная аудиодорожка: нет-Режиссер: Роберт Винс / Robert Vince-В ролях: Джон Ратценбергер, Майкл Тиган, Джейсон Эрлз, Тим Конуэй, Аттикус Шаффер, Элисон Стоунер, Купер Рот, Тай Паниц, Колин Хэнкс-Описание: Встречайте удивительных супергероев в веселом и увлекательном приключении для всей семьи от Disney. Обычный день на Ферме Фернфилда перестал быть скучным, когда Бутуз, Замараш, Би-Дог, Будда и Розабелла нашли загадочные кольца, наделившие наших героев уникальными суперспособностями. Вы и «гав» сказать не успеете, как отважные щенки окажутся втянуты в неравный бой с оборотнем-пришельцем из далекого космоса, угрожающим всей нашей планете. Но смогут ли верные друзья поставить злодея на место, не раскрыв при этом тайну своих суперспособностей? «Пятерка супергероев» — это фильм, полный юмора, приключений и очаровательных героев, который станет украшением вашей домашней коллекции. Бесстрашные друзья доказывают – если подходишь к делу с умом и играешь в команде, то не нужны никакие суперспособности, чтобы быть настоящим супергероем!- -Качество видео: HDRip
Формат видео: AVI
Видео: 720x400 (16:9), 23.976 fps, XviD build 50 ~2046 kbps avg, 0.296 bit/pixel
Аудио: AC3, 384 Kb/s (6 ch)

MediaInfo

Общее
Полное имя : E:\Piaterka.Supergeroev.2013.D.HDRip.1400Mb.avi
Формат : AVI
Формат/Информация : Audio Video Interleave
Размер файла : 1,38 Гбайт
Продолжительность : 1 ч. 20 м.
Общий поток : 2440 Кбит/сек
Программа кодирования : VirtualDubMod 1.5.10.2 (build 2540/release)
Библиотека кодирования : VirtualDubMod build 2540/release
Видео
Идентификатор : 0
Формат : MPEG-4 Visual
Профиль формата : Advanced [email protected]
Параметр BVOP формата : 2
Параметр QPel формата : Нет
Параметр GMC формата : Без точки перехода
Параметр матрицы формата : Default (H.263)
Идентификатор кодека : XVID
Идентификатор кодека/Подсказка : XviD
Продолжительность : 1 ч. 20 м.
Битрейт : 2047 Кбит/сек
Ширина : 720 пикселей
Высота : 400 пикселей
Соотношение сторон : 16:9
Частота кадров : 23,976 кадра/сек
Цветовое пространство : YUV
Субдискретизация насыщенности : 4:2:0
Битовая глубина : 8 бит
Тип развёртки : Прогрессивная
Метод сжатия : С потерями
Бит/(Пиксели*Кадры) : 0.296
Размер потока : 1,15 Гбайт (84%)
Библиотека кодирования : XviD 1.2.1 (UTC 2008-12-04)
Аудио
Идентификатор : 1
Формат : AC-3
Формат/Информация : Audio Coding 3
Расширение режима : CM (complete main)
Параметр Endianness формата : Big
Идентификатор кодека : 2000
Продолжительность : 1 ч. 20 м.
Вид битрейта : Постоянный
Битрейт : 384 Кбит/сек
Каналы : 6 каналов
Расположение каналов : Front: L C R, Side: L R, LFE
Частота : 48,0 КГц
Битовая глубина : 16 бит
Метод сжатия : С потерями
Размер потока : 222 Мбайт (16%)
Выравнивание : Разделение по промежуткам
Продолжительность промежутка : 42 мс. (1,00 видеокадр)
Время предзагрузки промежутка : 500 мс.

Скриншоты

Создавать темы 22-Авг-2013 06:26

[Профиль]  [ЛС] 

Taa6969

Стаж: 6 лет 2 месяца

Сообщений: 123

Симпатии: 2

трансформеры ? bj

Создавать темы 22-Авг-2013 14:04

[Профиль]  [ЛС] 

temurid

Стаж: 5 лет 5 месяцев

Сообщений: 60

Симпатии: 1

напишите отзывы стоит ли его качать?

Создавать темы 22-Авг-2013 15:04

[Профиль]  [ЛС] 

alx777

Стаж: 5 лет 7 месяцев

Сообщений: 87

Симпатии: 8

напишите отзывы стоит ли его качать?
Фильм, рассчитан для детской аудитории.

Создавать темы 22-Авг-2013 16:14

[Профиль]  [ЛС] 

air6797

Стаж: 4 года 10 месяцев

Сообщений: 114

Симпатии: 1

напишите отзывы стоит ли его качать?
Фильм, рассчитан для детской аудитории.
Согласен !!!

Создавать темы 22-Авг-2013 19:50

[Профиль]  [ЛС] 

debokcr

Стаж: 5 лет 3 месяца

Сообщений: 26

напишите отзывы стоит ли его качать?
Если ты нестарше 6 лет качай смело.Ну или дети утебя маленькие.

Создавать темы 22-Авг-2013 21:15

[Профиль]  [ЛС] 

Butty

Стаж: 5 лет

Сообщений: 96

Симпатии: 6

ДА уж последний скрин зашибись )) Дед отжигает молодость

Создавать темы 23-Авг-2013 07:37

[Профиль]  [ЛС] 

travis

Стаж: 5 лет 2 месяца

Сообщений: 28

Мля уже кого ток не выставляют супер героем скоро тараканы появяться )))

Создавать темы 25-Авг-2013 02:48

[Профиль]  [ЛС] 

Jnec

Стаж: 4 года 11 месяцев

Сообщений: 165

Спасибо!!!!

Создавать темы 26-Авг-2013 18:33

[Профиль]  [ЛС] 
Показать сообщения:    
Ответить на тему

Текущее время: 22-Сен 14:55

Часовой пояс: UTC + 5



Вы не можете начинать темы
Вы не можете отвечать на сообщения
Вы не можете редактировать свои сообщения
Вы не можете удалять свои сообщения
Вы не можете голосовать в опросах
Вы не можете прикреплять файлы к сообщениям
Вы не можете скачивать файлы