Присутствие великолепия / Magnifica presenza (Ферзан Озпетек) [2012, Италия, драма, BDRip-AVC] MVO (R5)

Ответить на тему
 

aziz2725272 ®

Стаж: 5 лет

Сообщений: 158

Симпатии: 6

Присутствие великолепия / Magnifica presenza

Год выпуска: 2012
Страна: Италия
Жанр: драма
Продолжительность: 01:46:02
Перевод: Профессиональный (многоголосый, закадровый)
Режиссер: Ферзан Озпетек / Ferzan Ozpetek
В ролях: Моника Нэппо, Массимилиано Галло, Бьянка Наппи, Виттория Пуччини, Элио Джермано, Беппе Фиорелло, Маргерита Буй, Андреа Боска, Паола Миначчони, Алессандро Ройа, Джанлука Гори, Платинетт, Анна Проклемер, Клаудиа Потенца, Джем Йылмаз, Амбросио Маэстри, Маттео Савино, Джеа Мартире, Джорджио Маркези, Элеонора Болла
Описание: Пьетро одержим идеей стать актером и ради осуществления своей мечты переезжает в Рим. В его жизни появляются новые люди. Вскоре в доме начинают происходить странные вещи: мебель и другие предметы двигаются сами по себе. Жизнь Пьетро превращается в настоящий спектакль. Будучи уверенным, что в квартире поселились призраки, герой с головой погружается в самое необычное приключение в своей жизни.

Качество: BDRip (AVC)
Исходник: BDRemux 1080p
Формат: MKV
Видео кодек: MPEG-4 AVC
Аудио кодек: AC3
Видео: MPEG-4 AVC, 1765 kbps , 1024x436 (2.35:1), 23.976 fps, 0.165 bit/pixel
Аудио: русский (AC3, 2 ch, 48 kHz, 192 kbps)

MI

General
Unique ID : 220945500069018249388732012535159047811 (0xA6388E3305F588B09EC2F793D079C683)
Complete name : D:\Prisutstvie.velikolepija.2012.x264.BDRip.(AVC).fanatus.mkv
Format : Matroska
Format version : Version 2
File size : 1.45 GiB
Duration : 1h 46mn
Overall bit rate : 1 957 Kbps
Movie name : Magnifica presenza (2012) - fanatus
Encoded date : UTC 2012-10-30 23:49:09
Writing application : mkvmerge v3.4.0 ('Rapunzel') сборка от May 15 2010 09:38:20
Writing library : libebml v0.8.0 + libmatroska v0.9.0
Video
ID : 1
Format : AVC
Format/Info : Advanced Video Codec
Format profile : [email protected]
Format settings, CABAC : Yes
Format settings, ReFrames : 14 frames
Codec ID : V_MPEG4/ISO/AVC
Duration : 1h 46mn
Bit rate : 1 765 Kbps
Width : 1 024 pixels
Height : 436 pixels
Display aspect ratio : 2.35:1
Frame rate : 23.976 fps
Color space : YUV
Chroma subsampling : 4:2:0
Bit depth : 8 bits
Scan type : Progressive
Bits/(Pixel*Frame) : 0.165
Stream size : 1.28 GiB (88%)
Title : Magnifica presenza (2012)
Writing library : x264 core 128 r2216 198a7ea
Encoding settings : cabac=1 / ref=14 / deblock=1:-2:-1 / analyse=0x3:0x133 / me=umh / subme=11 / psy=1 / psy_rd=1.05:0.00 / mixed_ref=1 / me_range=48 / chroma_me=1 / trellis=2 / 8x8dct=1 / cqm=0 / deadzone=21,11 / fast_pskip=0 / chroma_qp_offset=-2 / threads=16 / lookahead_threads=2 / sliced_threads=0 / nr=0 / decimate=0 / interlaced=0 / bluray_compat=0 / constrained_intra=0 / bframes=14 / b_pyramid=2 / b_adapt=2 / b_bias=0 / direct=3 / weightb=1 / open_gop=0 / weightp=2 / keyint=240 / keyint_min=23 / scenecut=40 / intra_refresh=0 / rc_lookahead=40 / rc=2pass / mbtree=0 / bitrate=1765 / ratetol=1.0 / qcomp=0.60 / qpmin=0 / qpmax=69 / qpstep=3 / cplxblur=20.0 / qblur=0.5 / vbv_maxrate=50000 / vbv_bufsize=62500 / nal_hrd=none / ip_ratio=1.40 / pb_ratio=1.30 / aq=1:0.90
Language : Italian
Default : Yes
Forced : No
Matrix coefficients : BT.709-5, BT.1361, IEC 61966-2-4 709, SMPTE RP177
Audio
ID : 2
Format : AC-3
Format/Info : Audio Coding 3
Format profile : Dolby Digital
Mode extension : CM (complete main)
Format settings, Endianness : Big
Codec ID : A_AC3
Duration : 1h 46mn
Bit rate mode : Constant
Bit rate : 192 Kbps
Channel(s) : 2 channels
Channel positions : Front: L R
Sampling rate : 48.0 KHz
Bit depth : 16 bits
Compression mode : Lossy
Stream size : 146 MiB (10%)
Title : MVO (R5)
Language : Russian
Default : Yes
Forced : No
Menu
00:00:00.000 : :Chapter 01
00:05:38.171 : :Chapter 02
00:10:30.630 : :Chapter 03
00:13:54.667 : :Chapter 04
00:19:20.367 : :Chapter 05
00:27:24.476 : :Chapter 06
00:30:15.647 : :Chapter 07
00:36:23.014 : :Chapter 08
00:40:32.263 : :Chapter 09
00:42:51.569 : :Chapter 10
00:47:22.548 : :Chapter 11
00:49:19.623 : :Chapter 12
00:51:46.728 : :Chapter 13
01:00:02.599 : :Chapter 14
01:04:55.725 : :Chapter 15
01:10:44.073 : :Chapter 16
01:18:24.282 : :Chapter 17
01:23:07.941 : :Chapter 18
01:28:10.702 : :Chapter 19
01:34:58.651 : :Chapter 20

Скриншоты



Последний раз редактировалось: aziz2725272 (2013-08-23 21:08), всего редактировалось 1 раз

Создавать темы 23-Авг-2013 20:09

[Профиль]  [ЛС] 

Топик был перенесен из форума Фильмы за 2012 в форум HD-AVC

ziyod

Создавать темы 23-Авг-2013 21:08

 

aziz2725272 ®

Стаж: 5 лет

Сообщений: 158

Симпатии: 6

Красивый романтический фильм, а когда видишь столько страшных итальянских женщин одновременно, даже не удивляешься откуда там столько геев. ag
Фильм захватывает. Романтизирует. Гей-тема не развивается, просто показывается что главный герой - гей, и всё. Гей-тема здесь присутствует скорее для характеристики самого героя, не более. Она не раскрыта и не завершена. Видно чторежиссёр не хочет заострять на этом слишком много внимания. Секса в фильме нет даже с намёком. Разве что говорится что его сестра залетела от всего офиса одновременно. ag
Фильм про отношения, про артистов, про человечность. Много интересного и в конце остаётся чувство нереалистичности реалий.
Прекрасная прежде всего режиссёрская работа.
Жизнь продолжается,у фильма нет конца - ни одно решение не принято - герой неизвестно станет артистом или нет, духи не ясно уйдут ли в мир иной. Просто всё продолжилось, но остаются именно приятные чуства романтизма по окончании просмотра.
Рекомендуется к просмотру людям думающим, рассудительным, либеральным.

Создавать темы 31-Авг-2013 09:05

[Профиль]  [ЛС] 
Показать сообщения:    
Ответить на тему

Текущее время: 20-Окт 17:43

Часовой пояс: UTC + 5



Вы не можете начинать темы
Вы не можете отвечать на сообщения
Вы не можете редактировать свои сообщения
Вы не можете удалять свои сообщения
Вы не можете голосовать в опросах
Вы не можете прикреплять файлы к сообщениям
Вы не можете скачивать файлы