Путешествие на Запад: Покорение демонов / Journey to the West: Conquering the Demons / Daai wa sai you chi Chui mo chun kei (Стивен Чоу / Stephen Chow, Дерек Квок / Chi-kin Kwok) [2013, Китай, фэнтези, BDRip 720p] DVO [GREEN TEA] + original (chi)

Ответить на тему
 

aziz2725272 ®

Стаж: 4 года 10 месяцев

Сообщений: 158

Симпатии: 6

Путешествие на Запад: Покорение демонов / Journey to the West: Conquering the Demons / Daai wa sai you chi Chui mo chun kei

Год выпуска: 2013
Страна: Китай
Жанр: фэнтези, комедия, приключения
Продолжительность: 01:49:43
Cубтитры: английские
Оригинальная аудиодорожка: китайский
Перевод: Любительский (двухголосый закадровый) Ольга Гринтиева и Виктор Ерёменко "GREEN TEA"
Режиссер: Стивен Чоу / Stephen Chow, Дерек Квок / Chi-kin Kwok
В ролях: Бо Хуанг, Чжан Вэнь, Шу Ци, Шоу Луо, Крисси Чау, Чи Чи Линг, Мин Хун Фанг, Ю Хин
Описание: Тан Санжан (Вен Чжан) – начинающий охотник на демонов, пытающийся укротить монстров не силой, а добром и прощением. Хотя он искренне верит в то, что говорит ему учитель, усмирять агрессивных чудовищ у него не получается, и если бы не другая охотница, Бай Гуцзин (Хсу Чи), предпочитающая решать все проблемы кулаками, ему пришлось бы туго. Но даже Гуцзин не может справиться с кровожадным Демоном-вепрем, который открывает на них охоту. Помочь укротить монстра может только другой демон – Царь обезьян (Хуанг Бо), вот уже пятьсот лет заточенный в пещере у подножия храма Будды…

Качество: BDRip 720p
Формат: MKV
Видео кодек: H264
Аудио кодек: AC3
Видео: H264, 1280x544, 24fps, 5 000 Kbps,
Аудио: (DVO) AC3, 48000Hz, stereo, 192 Kbps
Аудио: (Original) DTS, 48000Hz, 6ch, 1 509 Kbps

MI

Complete name : Journey.to.the.West.Conquering.the.Demons.2013.BDRip.720p.mkv
Format : Matroska
Format version : Version 2
File size : 5.14 GiB
Duration : 1h 49mn
Overall bit rate : 6 691 Kbps
Encoded date : UTC 2013-05-27 17:40:41
Writing application : mkvmerge v4.8.0 ('I Got The...') сборка от May 24 2011 03:12:58
Writing library : libebml v1.2.0 + libmatroska v1.1.0
Video
ID : 1
Format : AVC
Format/Info : Advanced Video Codec
Format profile : [email protected]
Format settings, CABAC : Yes
Format settings, ReFrames : 12 frames
Codec ID : V_MPEG4/ISO/AVC
Duration : 1h 49mn
Bit rate : 5 000 Kbps
Width : 1 280 pixels
Height : 544 pixels
Display aspect ratio : 2.35:1
Frame rate mode : Constant
Frame rate : 24.000 fps
Color space : YUV
Chroma subsampling : 4:2:0
Bit depth : 8 bits
Scan type : Progressive
Bits/(Pixel*Frame) : 0.299
Stream size : 3.73 GiB (73%)
Writing library : x264 core 130 r2274+704+40 24c804d tMod+MixAQ [[email protected]:2:0 X86_64]
Encoding settings : cabac=1 / ref=12 / deblock=1:-3:-3 / analyse=0x3:0x113 / me=umh / subme=11 / psy=1 / fade_compensate=0.00 / psy_rd=1.05:0.00 / mixed_ref=1 / me_range=48 / chroma_me=1 / trellis=2 / 8x8dct=1 / cqm=0 / deadzone=21,11 / fast_pskip=0 / chroma_qp_offset=-2 / threads=36 / lookahead_threads=4 / sliced_threads=0 / nr=0 / decimate=0 / interlaced=0 / bluray_compat=0 / constrained_intra=0 / fgo=0 / bframes=8 / b_pyramid=2 / b_adapt=2 / b_bias=0 / direct=3 / weightb=1 / open_gop=0 / weightp=2 / keyint=240 / keyint_min=24 / scenecut=40 / intra_refresh=0 / rc=2pass / mbtree=0 / bitrate=5000 / ratetol=1.0 / qcomp=0.72 / qpmin=0 / qpmax=69 / qpstep=4 / cplxblur=20.0 / qblur=0.5 / ip_ratio=1.25 / pb_ratio=1.20 / aq=4:0.85 / aq-sensitivity=10.00 / aq-ifactor=1.00 / aq-pfactor=1.00 / aq-bfactor=1.00 / aq2=0
Language : Chinese
Default : Yes
Forced : No
Audio #1
ID : 2
Format : AC-3
Format/Info : Audio Coding 3
Mode extension : CM (complete main)
Format settings, Endianness : Big
Codec ID : A_AC3
Duration : 1h 49mn
Bit rate mode : Constant
Bit rate : 192 Kbps
Channel(s) : 2 channels
Channel positions : Front: L R
Sampling rate : 48.0 KHz
Bit depth : 16 bits
Compression mode : Lossy
Stream size : 151 MiB (3%)
Language : Russian
Default : Yes
Forced : No
Audio #2
ID : 3
Format : DTS
Format/Info : Digital Theater Systems
Mode : 16
Format settings, Endianness : Big
Codec ID : A_DTS
Duration : 1h 49mn
Bit rate mode : Constant
Bit rate : 1 509 Kbps
Channel(s) : 6 channels
Channel positions : Front: L C R, Side: L R, LFE
Sampling rate : 48.0 KHz
Bit depth : 16 bits
Compression mode : Lossy
Stream size : 1.16 GiB (23%)
Language : Chinese
Default : No
Forced : No
Text
ID : 4
Format : UTF-8
Codec ID : S_TEXT/UTF8
Codec ID/Info : UTF-8 Plain Text
Language : English
Default : No
Forced : No

Скриншоты

Создавать темы 23-Авг-2013 20:47

[Профиль]  [ЛС] 

Топик был перенесен из форума Фильмы за 2011 в форум Зарубежное кино

ziyod

Создавать темы 23-Авг-2013 21:02

 

aziz2725272 ®

Стаж: 4 года 10 месяцев

Сообщений: 158

Симпатии: 6

tu По содержанию фильма.
Фильм заканчивается формированием команды паломников. Это почти что начало самого романа. Видимо должно быть продолжение, и довольно объемное?
Недостатки.
Дубляж пестрит ошибками. Например слышно, как демона-свинью зовут по имени: "Джуба Дзе!". Переводчик переводит: "Пикок"- какой-то!? Ну хоть бы роман немножко почитали.
Фильм понравился. ay

Создавать темы 31-Авг-2013 09:01

[Профиль]  [ЛС] 
Показать сообщения:    
Ответить на тему

Текущее время: 22-Авг 12:29

Часовой пояс: UTC + 5



Вы не можете начинать темы
Вы не можете отвечать на сообщения
Вы не можете редактировать свои сообщения
Вы не можете удалять свои сообщения
Вы не можете голосовать в опросах
Вы не можете прикреплять файлы к сообщениям
Вы не можете скачивать файлы