Интервью с вампиром / Interview with the Vampire: The Vampire Chronicles (Нил Джордан) [1994 г., ужасы, фэнтези, драма, HDRip]

Ответить на тему
 

Дмитриев ®

Стаж: 7 лет 5 месяцев

Сообщений: 139

Симпатии: 12

Интервью с вампиром / Interview with the Vampire: The Vampire Chronicles
Год выпуска: 1994
Страна: США
Жанр: ужасы, фэнтези, драма
Продолжительность: 02:02:33
Перевод: Профессиональный (полное дублирование)
Режиссер: Нил Джордан
В ролях: Том Круз, Брэд Питт, Антонио Бандерас, Стивен Ри, Кирстен Данст, Кристиан Слэйтер, Вирджиния МакКоллэм, Джон МакКоннелл, Майк Силиг, Беллина Логан
Описание: К падкому на сенсации журналисту приходит вампир, чтобы поведать историю своей жизни. Все началось в 1791 году, когда молодой плантатор Луи, потеряв жену и ребенка, захотел умереть, но «родился для мрака». Выслушав рассказ вампира, журналист пожелал стать таким же, как он…
Качество: HDRip
Формат: AVI
Видео кодек: XviD
Аудио кодек: AC3
Видео: Xvid 720x400 23.976fps
Аудио #1:|RUS| Dolby AC3 48000Hz 6ch 384kbps
Аудио #2:|ENG| Dolby AC3 48000Hz 6ch 384kbps

Показать Медиа Инфо

Format : AVI
Format/Info : Audio Video Interleave
Format profile : OpenDML
File size : 2.18 GiB
Duration : 2h 2mn
Overall bit rate : 2 548 Kbps
Movie name : Интервью с вампиром / Interview with the Vampire: The Vampire Chronicles (1994)
Director : Shevon (BDRip 1080p)
Writing application : VirtualDubMod 1.5.10.2 (build 2540/release)
Video
ID : 0
Format : MPEG-4 Visual
Format profile : Advanced [email protected]
Format settings, BVOP : 1
Format settings, QPel : No
Format settings, GMC : No warppoints
Format settings, Matrix : Custom
Codec ID : XVID
Codec ID/Hint : XviD
Duration : 2h 2mn
Bit rate : 1 762 Kbps
Width : 720 pixels
Height : 400 pixels
Display aspect ratio : 16:9
Frame rate : 23.976 fps
Color space : YUV
Chroma subsampling : 4:2:0
Bit depth : 8 bits
Scan type : Progressive
Compression mode : Lossy
Bits/(Pixel*Frame) : 0.255
Stream size : 1.51 GiB (69%)
Writing library : XviD 1.2.0.dev47 (UTC 2006-11-01)
Audio #1
ID : 1
Format : AC-3
Format/Info : Audio Coding 3
Mode extension : CM (complete main)
Format settings, Endianness : Big
Codec ID : 2000
Duration : 2h 2mn
Bit rate mode : Constant
Bit rate : 384 Kbps
Channel(s) : 6 channels
Channel positions : Front: L C R, Side: L R, LFE
Sampling rate : 48.0 KHz
Bit depth : 16 bits
Compression mode : Lossy
Stream size : 337 MiB (15%)
Alignment : Split accross interleaves
Interleave, duration : 42 ms (1.00 video frame)
Interleave, preload duration : 500 ms
Audio #2
ID : 2
Format : AC-3
Format/Info : Audio Coding 3
Mode extension : CM (complete main)
Format settings, Endianness : Big
Codec ID : 2000
Duration : 2h 2mn
Bit rate mode : Constant
Bit rate : 384 Kbps
Channel(s) : 6 channels
Channel positions : Front: L C R, Side: L R, LFE
Sampling rate : 48.0 KHz
Bit depth : 16 bits
Compression mode : Lossy
Stream size : 337 MiB (15%)
Alignment : Split accross interleaves
Interleave, duration : 42 ms (1.00 video frame)
Interleave, preload duration : 500 ms

Показать Скриншоты







Создавать темы 23-Авг-2013 22:39

[Профиль]  [ЛС] 

-MilaSHka-

Стаж: 5 лет 1 месяц

Сообщений: 8

Симпатии: 1

Дмитриев
Мамамия тут Брэд Питт прекрасный фильм Спасибо большое

Создавать темы 23-Авг-2013 22:46

[Профиль]  [ЛС] 

Grock

Стаж: 6 лет 9 месяцев

Сообщений: 637

Симпатии: 113

Классика жанра! Есть в коллекции, но чуток поменьше размером =)..

Создавать темы 23-Авг-2013 22:57

[Профиль]  [ЛС] 

PIXEL 100

Стаж: 4 года 6 месяцев

Сообщений: 49

Симпатии: 8

Дмитриев, это лицуха? Перевод: Профессиональный (полное дублирование) Лицензия! спасиба за филм

Создавать темы 24-Авг-2013 07:08

[Профиль]  [ЛС] 

dy8uk

Стаж: 6 лет 5 месяцев

Сообщений: 105

Симпатии: 3

Помогу с раздачей. На мой взгляд этот фильм должен быть в Топ 10

Создавать темы 24-Авг-2013 10:31

[Профиль]  [ЛС] 

Sinatro

Стаж: 5 лет 10 месяцев

Сообщений: 117

Симпатии: 2

Помогу с раздачей. На мой взгляд этот фильм должен быть в Топ 10
Фильмы про вампиров никогда не были в топе!!

Создавать темы 24-Авг-2013 15:58

[Профиль]  [ЛС] 

Kubaev_Muhiddin

Стаж: 6 лет 9 месяцев

Сообщений: 104

Симпатии: 34

Автор спасибо за релиз, фильм просто классный, рекомендую

Создавать темы 26-Авг-2013 15:26

[Профиль]  [ЛС] 

Дмитриев ®

Стаж: 7 лет 5 месяцев

Сообщений: 139

Симпатии: 12

Всегда пожалуйста
Приятного просмотра

Создавать темы 29-Авг-2013 13:20

[Профиль]  [ЛС] 

DK-gangam-style-oppa

Стаж: 5 лет

Сообщений: 61

Спасибо автор, давно искал, а то у меня есть, но в хреновом качестве) А так да, фильм просто классика...но книга лучше :D

Создавать темы 08-Июл-2014 20:02

[Профиль]  [ЛС] 
Показать сообщения:    
Ответить на тему

Текущее время: 22-Ноя 16:09

Часовой пояс: UTC + 5



Вы не можете начинать темы
Вы не можете отвечать на сообщения
Вы не можете редактировать свои сообщения
Вы не можете удалять свои сообщения
Вы не можете голосовать в опросах
Вы не можете прикреплять файлы к сообщениям
Вы не можете скачивать файлы