Дикари (Виктор Шамиров) [2006, драма, мелодрама, комедия, DVDRip]

Ответить на тему
 

Джамшид ®

Стаж: 7 лет 5 месяцев

Сообщений: 136

Симпатии: 14

Дикари
Жанр: драма, мелодрама, комедия
Год выпуска: 2006
Продолжительность: 01:47:46
Режиссёр: Виктор Шамиров
В ролях:
Гоша Куценко
Марат Башаров
Константин Юшкевич
Эвклид Кюрдзидис
Тихон Жизневский
Анна Небогатова
Владислав Галкин
Алексей Горбунов
Ирина Новак
Александр Гришаев
Описание:
Море, август… Интересы людей просты: позагорать, поплавать, поиграть в волейбол, баскетбол, выпить, потанцевать вечером, найти партнера ночью… Многие вышли из студенческого возраста, могут позволить себе более комфортабельный отдых, но кончается июль, они кидают в багажник солидного автомобиля старую палатку и едут сюда.
Здесь не говорят о работе, здесь не важно, сколько у тебя денег… Множество человеческих историй, ценных, смешных и грустных. Внимание переходит от одного героя к другому, затем к третьему, возвращается к первому и цепляет на исходе эпизода четвертого, который был главный в предыдущем эпизоде. Рассказ строится скорее как музыка, чем как конструкция. И ритм, настроение повествования задает именно место действия.
Качество видео: DVDRip
Формат видео: AVI
Видео: 720x384 (1.88:1), 25 fps, XviD build 65 ~1475 kbps avg, 0.21 bit/pixel
Аудио: 48 kHz, AC3 Dolby Digital, 3/2 (L,C,R,l,r) + LFE ch, ~448 kbps

MediaInfo

Общее
Формат : AVI
Формат/Информация : Audio Video Interleave
Размер файла : 1,46 Гбайт
Продолжительность : 1 ч. 47 м.
Общий поток : 1934 Кбит/сек
Программа кодирования : VirtualDubMod 1.5.10.3 | www.virtualdub-fr.org || (build 2550/release)
Библиотека кодирования : VirtualDubMod build 2550/release
Видео
Идентификатор : 0
Формат : MPEG-4 Visual
Профиль формата : Advanced [email protected]
Параметр BVOP формата : 1
Параметр QPel формата : Нет
Параметр GMC формата : Без точки перехода
Параметр матрицы формата : Выборочная
Идентификатор кодека : XVID
Идентификатор кодека/Подсказка : XviD
Продолжительность : 1 ч. 47 м.
Битрейт : 1476 Кбит/сек
Ширина : 720 пикселей
Высота : 384 пикселя
Соотношение сторон : 1,85:1
Частота кадров : 25,000 кадров/сек
Цветовое пространство : YUV
Субдискретизация насыщенности : 4:2:0
Битовая глубина : 8 бит
Тип развёртки : Прогрессивная
Метод сжатия : С потерями
Бит/(Пиксели*Кадры) : 0.214
Размер потока : 1,11 Гбайт (76%)
Библиотека кодирования : XviD 65
Аудио
Идентификатор : 1
Формат : AC-3
Формат/Информация : Audio Coding 3
Расширение режима : CM (complete main)
Параметр Endianness формата : Big
Идентификатор кодека : 2000
Продолжительность : 1 ч. 47 м.
Вид битрейта : Постоянный
Битрейт : 448 Кбит/сек
Каналы : 6 каналов
Расположение каналов : Front: L C R, Side: L R, LFE
Частота : 48,0 КГц
Битовая глубина : 16 бит
Метод сжатия : С потерями
Размер потока : 345 Мбайт (23%)
Выравнивание : Разделение по промежуткам
Продолжительность промежутка : 40 мс. (1,00 видеокадр)
Время предзагрузки промежутка : 500 мс.

Скриншот c названием фильма

Скриншоты





Создавать темы 24-Авг-2013 07:29

[Профиль]  [ЛС] 

Red.Scorpion

Стаж: 4 года 7 месяцев

Сообщений: 25

Симпатии: 1

Есть среди скачавших Узонлайновцы?
Как у вас скорость?

Создавать темы 29-Авг-2013 14:45

[Профиль]  [ЛС] 

Astrolog

Стаж: 5 лет 3 месяца

Сообщений: 213

Симпатии: 27

Red.Scorpion, раздаю с 1 Мб/с, но распределяется по раздачам...

Создавать темы 29-Авг-2013 15:52

[Профиль]  [ЛС] 
Показать сообщения:    
Ответить на тему

Текущее время: 25-Сен 22:02

Часовой пояс: UTC + 5



Вы не можете начинать темы
Вы не можете отвечать на сообщения
Вы не можете редактировать свои сообщения
Вы не можете удалять свои сообщения
Вы не можете голосовать в опросах
Вы не можете прикреплять файлы к сообщениям
Вы не можете скачивать файлы