Игорь Крутой и Лара Фабиан [2012 г., Pop, DVDRip]

Ответить на тему
 

Olim4ik ®

Стаж: 4 года 10 месяцев

Сообщений: 115

Симпатии: 10

Игорь Крутой и Лара Фабиан Год выпуска: 2012
Страна: Франция
Жанр: Pop
Продолжительность: 01:36:05
Качество: DVDRip
Формат: MPEG Video
Видео кодек: MPEG Video
Аудио кодек: AC-3

Видео

ID : 224 (0xE0)
Format : MPEG Video
Format version : Version 2
Format profile : [email protected]
Format settings, BVOP : No
Format settings, Matrix : Custom
Format settings, GOP : Variable
Duration : 31s 960ms
Bit rate mode : Variable
Bit rate : 32.1 Mbps
Maximum bit rate : 9 641 Kbps
Width : 720 pixels
Height : 576 pixels
Display aspect ratio : 4:3
Frame rate : 25.000 fps
Standard : PAL
Color space : YUV
Chroma subsampling : 4:2:0
Bit depth : 8 bits
Scan type : Progressive
Scan order : Bottom Field First
Compression mode : Lossy
Bits/(Pixel*Frame) : 3.099
Time code of first frame : 00:00:00:00
Time code source : Group of pictures header
Stream size : 122 MiB (97%)

Аудио

ID : 189 (0xBD)-128 (0x80)
Format : AC-3
Format/Info : Audio Coding 3
Mode extension : CM (complete main)
Format settings, Endianness : Big
Muxing mode : DVD-Video
Duration : 31s 960ms
Bit rate mode : Constant
Bit rate : 192 Kbps
Channel count : 2 channels
Channel positions : Front: L R
Sampling rate : 48.0 KHz
Bit depth : 16 bits
Compression mode : Lossy
Delay relative to video : -40ms
Stream size : 749 KiB (1%)

Скриншоты




Последний раз редактировалось: Olim4ik (2013-08-26 16:30), всего редактировалось 7 раз(а)

Создавать темы 24-Авг-2013 17:01

[Профиль]  [ЛС] 

nico3500

Стаж: 4 года 11 месяцев

Сообщений: 99

Симпатии: 6

Если здесь есть дуэт Лары Фабиан и Суми Джо "Sons & daughters" то это было бы вообще круто.

Создавать темы 24-Авг-2013 21:07

[Профиль]  [ЛС] 

Olim4ik ®

Стаж: 4 года 10 месяцев

Сообщений: 115

Симпатии: 10

Обновляйте свой IP Фильтер и записывайте свой Ip 10.x.x.x

Создавать темы 28-Авг-2013 15:54

[Профиль]  [ЛС] 
Показать сообщения:    
Ответить на тему

Текущее время: 16-Дек 02:46

Часовой пояс: UTC + 5



Вы не можете начинать темы
Вы не можете отвечать на сообщения
Вы не можете редактировать свои сообщения
Вы не можете удалять свои сообщения
Вы не можете голосовать в опросах
Вы не можете прикреплять файлы к сообщениям
Вы не можете скачивать файлы