Пена дней / L'écume des jours (Мишель Гондри) [2013 г., Фэнтези, мелодрама, драма, HDRip][Чистый звук]

Ответить на тему
 

Suxrob89 ®

Стаж: 7 лет

Сообщений: 933

Симпатии: 564

-Пена дней / L'йcume des jours- Страна: Франция, Бельгия
Жанр: фэнтези, мелодрама, драма
Год выпуска: 2013
Продолжительность: 01:59:39
Перевод: Профессиональный (дублированный) [Чистый звук]
Cубтитры: нет-Режиссер: Мишель Гондри / Michel Gondry-В ролях: Ромэн Дюри, Одри Тоту, Омар Си, Шарлотта Лебон, Филипп Торретон, Винсент Роттирс, Лорент Лэфитт, Зинедин Суалам, Ален Шаба, Марина Розенмен, Мэтью Полус-Описание: История любви, разворачивающаяся в фантастическом мире, где влюбленные летают на свидания в розовых тучках и танцуют на потолке, где в коридоре обычной квартиры живет солнце, а мыши-домоправители ведут беседы с кошками, где цветы прорастают внутри людей и тепло человеческого сердца способно уничтожить самое опасное оружие.- -Качество: HDRip[Рип с BDRip 720p]
Формат: AVI
Видео кодек: XviD
Аудио кодек: AC3
Видео: 1393 Kb/s, 720x384,23.976fps
Аудио: 192 Kb/s (2 ch),48.0khz

MediaInfo

D:\Pena.dnej.2013.D.HDRip.1.46.avi
General
Complete name : D:\Pena.dnej.2013.D.HDRip.1.46.avi
Format : AVI
Format/Info : Audio Video Interleave
File size : 1.46 GiB
Duration : 2h 10mn
Overall bit rate : 1 594 Kbps
Writing application : VirtualDubMod 1.5.10.3 | www.virtualdub-fr.org || (build 2550/release)
Writing library : VirtualDubMod build 2550/release
Video #0
ID : 0
Format : MPEG-4 Visual
Format profile : Advanced [email protected]
Format settings, BVOP : 2
Format settings, QPel : No
Format settings, GMC : No warppoints
Format settings, Matrix : Custom
Codec ID : XVID
Codec ID/Hint : XviD
Duration : 2h 10mn
Bit rate : 1 393 Kbps
Width : 720 pixels
Height : 384 pixels
Display aspect ratio : 1.85:1
Frame rate : 24.000 fps
Color space : YUV
Chroma subsampling : 4:2:0
Bit depth : 8 bits
Scan type : Progressive
Compression mode : Lossy
Bits/(Pixel*Frame) : 0.210
Stream size : 1.27 GiB (87%)
Writing library : XviD 1.2.1 (UTC 2008-12-04)
Audio #1
ID : 1
Format : AC-3
Format/Info : Audio Coding 3
Mode extension : CM (complete main)
Format settings, Endianness : Big
Codec ID : 2000
Duration : 2h 10mn
Bit rate mode : Constant
Bit rate : 192 Kbps
Channel(s) : 2 channels
Channel positions : Front: L R
Sampling rate : 48.0 KHz
Bit depth : 16 bits
Compression mode : Lossy
Stream size : 180 MiB (12%)
Alignment : Split accross interleaves
Interleave, duration : 42 ms (1.00 video frame)
Interleave, preload duration : 500 ms

Скриншоты

Создавать темы 24-Авг-2013 19:36

[Профиль]  [ЛС] 

VEEEX

Стаж: 4 года

Сообщений: 11

стоит качать? описание непонятное..

Создавать темы 31-Авг-2013 22:58

[Профиль]  [ЛС] 

kasymov

Стаж: 4 года 6 месяцев

Сообщений: 12

Блин, самый дурацкий и самый отвратителный фильм когда либо я смотрел. Ни фига не понятно что творится в фильме. Смотриш смотриш и нервы наколяются. Вообщето даже слов жалко на рицензию. Короткая рицензия это: ТФУ!!!!

Создавать темы 31-Авг-2013 23:23

[Профиль]  [ЛС] 

Morro

Стаж: 4 года 10 месяцев

Сообщений: 4

по описанию кажется, что автор сценария, при написании этого, что-то употреблял

Создавать темы 31-Авг-2013 23:26

[Профиль]  [ЛС] 

sevenst77

Стаж: 5 лет 7 месяцев

Сообщений: 40

Хорошо предупредили!

Создавать темы 01-Сен-2013 17:25

[Профиль]  [ЛС] 

Grock

Стаж: 6 лет 6 месяцев

Сообщений: 637

Симпатии: 113

kasymov, DIMID Почистил тему. Выясняйте отношения в ЛС.
В противном случае выдам варн.

Создавать темы 27-Сен-2013 00:09

[Профиль]  [ЛС] 

kasymov

Стаж: 4 года 6 месяцев

Сообщений: 12

kasymov, DIMID Почистил тему. Выясняйте отношения в ЛС.
В противном случае выдам варн.
Согласен!

Создавать темы 20-Окт-2013 22:24

[Профиль]  [ЛС] 

marimari

Стаж: 3 года 9 месяцев

Сообщений: 6

Перед просмотром желательно прочитать одноименную книгу - будет понятнее.
Спасибо за раздачу)

Создавать темы 04-Ноя-2013 11:32

[Профиль]  [ЛС] 

iziriz

Стаж: 3 года 7 месяцев

Сообщений: 34

Симпатии: 4

Книга кстати тоже нудновата сначала, пока не поймешь что к чему, а потом затягивает. глянем фильм

Создавать темы 14-Июн-2014 18:05

[Профиль]  [ЛС] 

SkyWalker

Стаж: 4 года 5 месяцев

Сообщений: 6

Симпатии: 2

фильм - шедевр, великолепно необычное преподнесение печальной истории...
то что авторы что-то употребляли - понятное дело, но суть не в этом. Даже в самом вроде бы бессмысленном и непонятном есть смысл. Мыслите глубже, это Вам не российский сериал или голливудский блокбастер, где думать не обязательно
Думаю любителям творчества Эмира Кустурици, такое придётся по душе)
Приятного проссмотра ;)

Создавать темы 28-Июн-2014 00:41

[Профиль]  [ЛС] 

kralyan

Стаж: 4 года 11 месяцев

Сообщений: 72

Симпатии: 7

Нечаянно наткнулся на этот фильм по Премьере, меня забавляла вся юмористическая постановка. А когда лучший друг ворует деньги, а хозяин этих денег ему помогает при этом, такого я не ожидал)) А вообще очень много моментов интересных, нужно лишь не серьезно всё воспринимать, чтобы уловить суть.

Создавать темы 29-Сен-2014 15:36

[Профиль]  [ЛС] 
Показать сообщения:    
Ответить на тему

Текущее время: 19-Авг 16:22

Часовой пояс: UTC + 5



Вы не можете начинать темы
Вы не можете отвечать на сообщения
Вы не можете редактировать свои сообщения
Вы не можете удалять свои сообщения
Вы не можете голосовать в опросах
Вы не можете прикреплять файлы к сообщениям
Вы не можете скачивать файлы