Железный человек Трилогия - Iron man Trilogy (Джон Фавро, Шейн Блэк) [2008-2010-2013 г.г, Фантастика / Боевик / Триллер / Драма / Приключения, HDRip - лицензия]

Страницы :  1, 2  След.

Ответить на тему
 

PIXEL 100 ®

Стаж: 4 года 3 месяца

Сообщений: 49

Симпатии: 8

Железный человек / Iron man Год выпуска: 2008
Страна: США
Жанр: Фантастика / Боевик / Триллер / Драма / Приключения
Продолжительность: 02:06:02
Перевод: Профессиональный (полное дублирование) - лицензия
-
Режиссёр: Джон Фавро
Сценарий: Марк Фергус, Хоук Остби, Артур Маркам
Продюссер: Ави Арад, Кевин Файги, Виктория Алонсо
Премьера в мире: 14 апреля 2008
В ролях: Роберт Дауни мл. Джефф Бриджес, Гвинет Пэлтроу, Терренс Ховард, Лесли Бибб, Шон Тоуб, Фаран Таир, Кларк Грегг, Джон Фавро, Саид Бадрия.
-
Описание: История о промышленнике-миллиардере и гениальном изобретателе, которого похитили с целью изготовления оружия массового поражения. Вместо этого, используя свой ум и фантазию, Тони конструирует высокотехнологичный железный костюм и спасается бегством. Обнаружив коварный заговор, чреватый страшными последствиями, он надевает свой костюм и защищает мир как Железный Человек
-
Качество: HDRip
Формат: AVI
Видео кодек: XviD
Аудио кодек: AC-3 (Audio Coding 3)
Видео: Xvid 720x304 23.976 fps 2019 kbps
Аудио: Dolby AC3 48000 Hz 6ch. 448 kbps

Media info

Video
ID : 0
Format : MPEG-4 Visual
Format profile : Advanced [email protected]
Format settings, BVOP : 1
Format settings, QPel : No
Format settings, GMC : No warppoints
Format settings, Matrix : Default (MPEG)
Codec ID : XVID
Codec ID/Hint : XviD
Duration : 2h 6mn
Bit rate : 2 020 Kbps
Width : 720 pixels
Height : 304 pixels
Display aspect ratio : 2.35:1
Frame rate : 23.976 fps
Color space : YUV
Chroma subsampling : 4:2:0
Bit depth : 8 bits
Scan type : Progressive
Compression mode : Lossy
Bits/(Pixel*Frame) : 0.385
Stream size : 1.78 GiB (81%)
Writing library : XviD 1.1.2 (UTC 2006-11-01)
Audio
ID : 1
Format : AC-3
Format/Info : Audio Coding 3
Mode extension : CM (complete main)
Format settings, Endianness : Big
Codec ID : 2000
Duration : 2h 6mn
Bit rate mode : Constant
Bit rate : 448 Kbps
Channel(s) : 6 channels
Channel positions : Front: L C R, Side: L R, LFE
Sampling rate : 48.0 KHz
Bit depth : 16 bits
Compression mode : Lossy
Stream size : 404 MiB (18%)
Alignment : Split accross interleaves
Interleave, duration : 42 ms (1.00 video frame)
Interleave, preload duration : 500 ms

Скриншоты



Железный человек 2 / Iron man 2 Год выпуска: 2010
Страна: Страна
Жанр: Фантастика / Боевик / Триллер / Драма / Приключения
Продолжительность: 02:04:50
Перевод: Профессиональный (полное дублирование) - лицензия
-
Режиссёр: Джон Фавро
Сценарий: Джастин Теру, Стэн Ли, Дон Хек
Продюссер: Кевин Файги, Виктория Алонсо, Луис Д’Эспозито
Премьера в мире: 26 апреля 2010
В ролях: Роберт Дауни мл., Гвинет Пэлтроу, Дон Чидл, Скарлетт Йоханссон, Сэм Рокуэлл, Микки Рурк, Сэмюэл Л. Джексон, Кларк Грегг, Джон Слэттери, Гарри Шендлинг
-
Описание: Прошло полгода с тех пор, как мир узнал, что миллиардер-изобретатель Тони Старк является обладателем уникальной кибер-брони Железного человека. Общественность требует, чтобы Старк передал технологию брони правительству США, но Тони не хочет разглашать её секреты, потому что боится, что она попадёт не в те руки. Между тем, Иван Ванко - сын русского учёного когда-то работавшего на фирму Старка, но потом уволенного и лишенного всего, намерен отомстить Тони за беды своей семьи. Для чего сооружает своё высокотехнологичное оружие
-
Качество: HDRip
Формат: AVI
Видео кодек: XviD
Аудио кодек: AC-3 (Audio Coding 3)
Видео: Xvid 720x304 23.976 fps 2047 kbps
Аудио: Dolby AC3 48000 Hz 6ch. 384 kbps

Media info

:
Video
ID : 0
Format : MPEG-4 Visual
Format profile : Advanced [email protected]
Format settings, BVOP : 1
Format settings, QPel : No
Format settings, GMC : No warppoints
Format settings, Matrix : Custom
Codec ID : XVID
Codec ID/Hint : XviD
Duration : 2h 4mn
Bit rate : 2 043 Kbps
Width : 720 pixels
Height : 304 pixels
Display aspect ratio : 2.35:1
Frame rate : 23.976 fps
Color space : YUV
Chroma subsampling : 4:2:0
Bit depth : 8 bits
Scan type : Progressive
Compression mode : Lossy
Bits/(Pixel*Frame) : 0.389
Stream size : 1.78 GiB (84%)
Writing library : XviD 1.2.1 (UTC 2008-12-04)
Audio
ID : 1
Format : AC-3
Format/Info : Audio Coding 3
Mode extension : CM (complete main)
Format settings, Endianness : Big
Codec ID : 2000
Duration : 2h 4mn
Bit rate mode : Constant
Bit rate : 384 Kbps
Channel(s) : 6 channels
Channel positions : Front: L C R, Side: L R, LFE
Sampling rate : 48.0 KHz
Bit depth : 16 bits
Compression mode : Lossy
Stream size : 342 MiB (16%)
Alignment : Split accross interleaves
Interleave, duration : 42 ms (1.00 video frame)
Interleave, preload duration : 500 ms

Скриншоты



Железный человек 3 / Iron man 3 Год выпуска: 2013
Страна: США, Китай
Жанр: Фантастика / Боевик / Триллер / Драма / Приключения
Продолжительность: 02:10:32
Перевод: Профессиональный (полное дублирование) - лицензия
-
Режиссёр: Шейн Блэк
Сценарий: Дрю Пирс, Шейн Блэк, Уоррен Эллис
Продюссер: Кевин Файги, Виктория Алонсо, Митчелл Белл
Премьера в мире: 18 апреля 2013
В ролях: Роберт Дауни мл., Гвинет Пэлтроу, Дон Чидл, Гай Пирс, Бен Кингсли, Ребекка Холл, Пол Беттани, Джон Фавро, Уильям Сэдлер, Джеймс Бэдж Дэйл
-
Описание: Когда мир Старка рушится на его глазах по вине неизвестных противников, Тони жаждет найти виновных и свести с ними счеты. Оказавшись в безвыходной ситуации, Старк может рассчитывать только на себя и свою изобретательность, чтобы защитить тех, кто ему дорог. Это становится настоящим испытанием для героя, которому придется не только сражаться с коварным врагом, но и разобраться в себе, чтобы найти ответ на вопрос, который давно его тревожит: что важнее - человек или костюм?
-
Качество: HDRip
Формат: AVI
Видео кодек: XviD
Аудио кодек: AC-3 (Audio Coding 3)
Видео: Xvid 720x304 23.976 fps 1143 kbps
Аудио: Dolby AC3 48000 Hz 6ch. 448 kbps

Media info

:
Video
ID : 0
Format : MPEG-4 Visual
Format profile : Advanced [email protected]
Format settings, BVOP : 2
Format settings, QPel : No
Format settings, GMC : No warppoints
Format settings, Matrix : Default (MPEG)
Muxing mode : Packed bitstream
Codec ID : XVID
Codec ID/Hint : XviD
Duration : 2h 10mn
Bit rate : 1 143 Kbps
Width : 720 pixels
Height : 304 pixels
Display aspect ratio : 2.35:1
Frame rate : 23.976 fps
Color space : YUV
Chroma subsampling : 4:2:0
Bit depth : 8 bits
Scan type : Progressive
Compression mode : Lossy
Bits/(Pixel*Frame) : 0.218
Stream size : 1.04 GiB (71%)
Writing library : XviD 73
Audio
ID : 1
Format : AC-3
Format/Info : Audio Coding 3
Mode extension : CM (complete main)
Format settings, Endianness : Big
Codec ID : 2000
Duration : 2h 10mn
Bit rate mode : Constant
Bit rate : 448 Kbps
Channel(s) : 6 channels
Channel positions : Front: L C R, Side: L R, LFE
Sampling rate : 48.0 KHz
Bit depth : 16 bits
Compression mode : Lossy
Stream size : 418 MiB (28%)
Alignment : Split accross interleaves
Interleave, duration : 42 ms (1.00 video frame)
Interleave, preload duration : 500 ms

Скриншоты



ПЕРЕКАЧАЙТЕ ТОРРЕНТ, РЕЛИЗ ОБНОВЛЕН


Последний раз редактировалось: PIXEL 100 (2013-09-04 12:10), всего редактировалось 8 раз(а)

Создавать темы 24-Авг-2013 23:46

[Профиль]  [ЛС] 

Kubaev_Muhiddin

Стаж: 6 лет 6 месяцев

Сообщений: 104

Симпатии: 34

О крутой релиз, +1 спасибо PIXEL 100,

Создавать темы 25-Авг-2013 00:33

[Профиль]  [ЛС] 

PIXEL 100 ®

Стаж: 4 года 3 месяца

Сообщений: 49

Симпатии: 8

дайте IP найдёт

Создавать темы 25-Авг-2013 01:02

[Профиль]  [ЛС] 

sher3od

Стаж: 4 года 9 месяцев

Сообщений: 41

Симпатии: 3

1 серию искал в таком размере спс за релиз, надеюсь раздача будет норм

Создавать темы 25-Авг-2013 07:29

[Профиль]  [ЛС] 

Bexruz9997

Стаж: 5 лет 2 месяца

Сообщений: 40

Симпатии: 6

хехе наверное я два месяца буду качать ))

Создавать темы 25-Авг-2013 14:48

[Профиль]  [ЛС] 

Kubaev_Muhiddin

Стаж: 6 лет 6 месяцев

Сообщений: 104

Симпатии: 34

Спасибо за релиз автор, я на раздаче

Создавать темы 26-Авг-2013 15:19

[Профиль]  [ЛС] 

PIXEL 100 ®

Стаж: 4 года 3 месяца

Сообщений: 49

Симпатии: 8

УВАЖАЕМЫЕ ПОЛЬЗОВАТЕЛИ, ПРОШУ ПРОШЕНИЯ И ПРОЩУ ПЕРЕКАЧАТЬ ТОРРЕНТ! ОДНО ИЗ ФИЛЬМОВ БЫЛ БИТЫМ! ЗАМЕНИЛ НА РАБОЧУЮ + ПЕРЕОФОРМИЛ. ТЕПЕРЬ МОЖНО СКАЧАТЬ СМЕЛО.

Создавать темы 27-Авг-2013 06:16

[Профиль]  [ЛС] 

Kubaev_Muhiddin

Стаж: 6 лет 6 месяцев

Сообщений: 104

Симпатии: 34

УВАЖАЕМЫЕ ПОЛЬЗОВАТЕЛИ, ПРОШУ ПРОШЕНИЯ И ПРОЩУ ПЕРЕКАЧАТЬ ТОРРЕНТ! ОДНО ИЗ ФИЛЬМОВ БЫЛ БИТЫМ! ЗАМЕНИЛ НА РАБОЧУЮ + ПЕРЕОФОРМИЛ. ТЕПЕРЬ МОЖНО СКАЧАТЬ СМЕЛО.
Ах вот вчём проблема, думал почему не качается? Всё я на раздаче

Создавать темы 27-Авг-2013 06:26

[Профиль]  [ЛС] 

Дмитриев

Стаж: 7 лет 2 месяца

Сообщений: 139

Симпатии: 12

Спасибо! за трио
Было бы круто если бы ещё кто нибудь залил трио в BDRip AVC
Автор респектос cb az

Создавать темы 28-Авг-2013 22:59

[Профиль]  [ЛС] 

Kubaev_Muhiddin

Стаж: 6 лет 6 месяцев

Сообщений: 104

Симпатии: 34

Проблемы с торрентами? Вот ссылка Toredo для сети Tas-ix.net. Качай и пользуйся
Toredo для сети Tas-ix.net

Создавать темы 30-Авг-2013 04:29

[Профиль]  [ЛС] 

PIXEL 100 ®

Стаж: 4 года 3 месяца

Сообщений: 49

Симпатии: 8

http://dir.uz/29463 филтор попробуйте этот

Создавать темы 30-Авг-2013 08:07

[Профиль]  [ЛС] 

gul1979_06

Стаж: 4 года 6 месяцев

Сообщений: 72

Симпатии: 2

чет 2 день сижу не качает

Создавать темы 01-Сен-2013 14:01

[Профиль]  [ЛС] 

Kubaev_Muhiddin

Стаж: 6 лет 6 месяцев

Сообщений: 104

Симпатии: 34

PIXEL 100, обнови торрент, что то скачки нету

Создавать темы 04-Сен-2013 12:04

[Профиль]  [ЛС] 

bbs-97

Стаж: 4 года 2 месяца

Сообщений: 83

Симпатии: 68

PIXEL 100, спасибо автор!

Создавать темы 04-Сен-2013 19:38

[Профиль]  [ЛС] 

Bexruz9997

Стаж: 5 лет 2 месяца

Сообщений: 40

Симпатии: 6

ооооочень мелденно раздается((((((

Создавать темы 09-Дек-2013 23:58

[Профиль]  [ЛС] 
Показать сообщения:    
Ответить на тему

Текущее время: 21-Авг 11:39

Часовой пояс: UTC + 5



Вы не можете начинать темы
Вы не можете отвечать на сообщения
Вы не можете редактировать свои сообщения
Вы не можете удалять свои сообщения
Вы не можете голосовать в опросах
Вы не можете прикреплять файлы к сообщениям
Вы не можете скачивать файлы