Ледяной / The Iceman (Ариэль Вромен) [2012 г., триллер, драма, криминал, биография, HDRip] P

Ответить на тему
 

Grock ®

Стаж: 6 лет 7 месяцев

Сообщений: 637

Симпатии: 113

-Ледяной / The Iceman
Название: Ледяной
Оригинальное название:The Iceman
Год выпуска: 2012
Жанр: триллер, драма, криминал, биография
Режиссер: Ариэль Вромен
В ролях: Майкл Шеннон, Вайнона Райдер, Рэй Лиотта, Крис Эванс, Дэвид Швиммер, Роберт Дави, Джеймс Франко, Дэнни А. Абекейзер, Джон Вентимилья, Райан О’Нан, МакКали Миллер
Описание: За 20 лет Куклински убил сотни человек и прославился под прозвищем «Ледяной» за то, что замораживал трупы своих жертв в промышленных рефрижераторах. Однако зыбкое равновесие между криминальными делами и семейным счастьем обречено было однажды разрушиться.
Выпущено: США / Bleiberg Entertainment, Millennium Films, RabbitBandini Productions
Продолжительность: 01:45:27
Озвучивание: Профессиональное (многоголосое)
Качество: HDRip
Формат: AVI (XviD)
Видео: 656x368 (1.78:1), 23.976 fps, XviD build 73 ~833 kbps avg, 0.14 bit/pixel
Аудио: 48 kHz, MPEG Layer 3, 2 ch, ~128.00 kbps avg
КиноПоиск.Ru: 6.687 (606)
IMDB.com: 7.00 (9475)

Медиа Инфо

C:\Фильмы - Продолжение\The.Iceman.2012.P.HDRip.avi
General
Complete name : C:\Фильмы - Продолжение\The.Iceman.2012.P.HDRip.avi
Format : AVI
Format/Info : Audio Video Interleave
File size : 732 MiB
Duration : 1h 45mn
Overall bit rate : 971 Kbps
Movie name : The Iceman (2012)
Writing application : VirtualDubMod 1.5.10.3 (build 2550/release)
Writing library : VirtualDubMod build 2550/release
Copyright : ed_rez
Video
Format : MPEG-4 Visual
Format profile : Streaming [email protected]
Format settings, BVOP : Yes
Format settings, QPel : No
Format settings, GMC : No warppoints
Format settings, Matrix : Custom
Codec ID : XVID
Codec ID/Hint : XviD
Duration : 1h 45mn
Bit rate : 834 Kbps
Width : 656 pixels
Height : 368 pixels
Display aspect ratio : 16/9
Frame rate : 23.976 fps
Resolution : 24 bits
Colorimetry : 4:2:0
Scan type : Progressive
Bits/(Pixel*Frame) : 0.144
Stream size : 629 MiB (86%)
Writing library : XviD 73
Audio
Format : MPEG Audio
Format version : Version 1
Format profile : Layer 3
Codec ID : 55
Codec ID/Hint : MP3
Duration : 1h 45mn
Bit rate mode : Constant
Bit rate : 128 Kbps
Channel(s) : 2 channels
Sampling rate : 48.0 KHz
Resolution : 16 bits
Stream size : 96.5 MiB (13%)
Alignment : Aligned on interleaves
Interleave, duration : 42 ms (1.00 video frame)
Interleave, preload duration : 504 ms

Скриншоты







Последний раз редактировалось: Grock (2013-08-25 19:04), всего редактировалось 1 раз

Создавать темы 25-Авг-2013 10:08

[Профиль]  [ЛС] 

Sinatro

Стаж: 5 лет 8 месяцев

Сообщений: 117

Симпатии: 2

Сюжет чем-то напоминает 1 сезон сериала Декстер там тоже был Ледяной убийца

Создавать темы 25-Авг-2013 15:19

[Профиль]  [ЛС] 
Показать сообщения:    
Ответить на тему

Текущее время: 20-Сен 00:05

Часовой пояс: UTC + 5



Вы не можете начинать темы
Вы не можете отвечать на сообщения
Вы не можете редактировать свои сообщения
Вы не можете удалять свои сообщения
Вы не можете голосовать в опросах
Вы не можете прикреплять файлы к сообщениям
Вы не можете скачивать файлы