Черепашки ниндзя - Трилогия / Teenage Mutant Ninja Turtles - Trilogy (Стив Баррон) [1990-1993 г., семейный фантастическо-юмористический боевик, BDRip-AVC] MVO

Ответить на тему
 

AZIK6249 ®

Стаж: 4 года 4 месяца

Сообщений: 7

Год выпуска: 1990
Страна: США, Гонконг
Жанр: семейный фантастическо-юмористический боевик
Продолжительность: 1:33:01
Перевод: Профессиональный (Многоголосый, закадровый)
Субтитры: Русский; Английский; Франсузкий;
Режиссер: Стив Баррон
В ролях: Джудит Хоуг, Элиас Котеас, Рэймонд Серра, Микелан Систи, Майкл Терни, Джеймс Саито, Лейф Тилден, Луис Кантарини, Джэй Паттерсон, Джош Пэйс, Обата Тосиро, Китти Фитцгиббон, Дэвид Форман, Тоширо Обата, Джо Д`Онофрио, Марк Джеффри Миллер, Кенн Скотт, Уинстон Хемингуэй, Джо Инско, Кевин Истмэн, Рик Гомес, Роберт Дж. Максвелл, Ник Перниче, Кимани Рэй Смит, Скит Ульрих, Сэм Рокуэлл, Джон Уорд
Описание: Черепахи-мутанты, живущие в подземных коммуникациях Нью-Йорка, овладевшие приемами каратэ под руководством своего учителя – крысы-мутанта, выходца из Японии, терпеть не могут, когда на поверхности происходят безобразия и борются за справедливость изо всех сил. Они приходят на помощь молодой журналистке, когда ее жизни грозит опасность со стороны злых сил...
Доп. информация: IMDB - 5.7
КиноПоиск - 6.85

Качество: BDRip-AVC
Формат: MKV
Видео кодек: AVC
Аудио кодек: AC3
Видео: MPEG-4 Video(H.264); 1024x576; ~24,000 Кадра/сек; 2576 Кбит/сек;
Аудио #1: AC-3; 48,0 КГц; 6-ch; 384 Кбит/сек (Русский)
Аудио #2: AC-3; 48,0 КГц; 6-ch; 384 Кбит/сек (English)

Скриншоты





MediaINFO

Общее
Уникальный идентификатор : 246380112459434313404341259813499601001 (0xB95B1568B0F6B8A4BB359B324D328069)
Полное имя : \\Studiosky\h\Turtles_Trilogy_(AZIK6249)\Cherepashki-nindzja.1.1990.BDRip-AVC.(AZIK6249).mkv
Формат : Matroska
Версия формата : Version 2
Размер файла : 2,19 Гбайт
Продолжительность : 1 ч. 33 м.
Общий поток : 3343 Кбит/сек
Название фильма : Cherepashki-nindzja.1990.BDRip-AVC.1.18-AVP Studio
Дата кодирования : UTC 2012-03-10 02:15:54
Программа кодирования : mkvmerge v5.2.0 ('I can't explain') built on Dec 18 2011 18:12:03
Библиотека кодирования : libebml v1.2.3 + libmatroska v1.3.0
Видео
Идентификатор : 1
Формат : AVC
Формат/Информация : Advanced Video Codec
Профиль формата : [email protected]
Параметр CABAC формата : Да
Параметр ReFrames формата : 8 кадров
Идентификатор кодека : V_MPEG4/ISO/AVC
Продолжительность : 1 ч. 33 м.
Битрейт : 2576 Кбит/сек
Ширина : 1024 пикселя
Высота : 576 пикселей
Соотношение сторон : 16:9
Режим частоты кадров : Постоянный
Частота кадров : 23,976 кадра/сек
Цветовое пространство : YUV
Субдискретизация насыщенности : 4:2:0
Битовая глубина : 8 бит
Тип развёртки : Прогрессивная
Бит/(Пиксели*Кадры) : 0.182
Размер потока : 1,64 Гбайт (75%)
Заголовок : Источник BDRemux
Библиотека кодирования : x264 core 119 r2106 07efeb4
Настройки программы : cabac=1 / ref=8 / deblock=1:-2:-1 / analyse=0x3:0x113 / me=umh / subme=9 / psy=1 / psy_rd=1.00:0.10 / mixed_ref=1 / me_range=32 / chroma_me=1 / trellis=1 / 8x8dct=1 / cqm=0 / deadzone=21,11 / fast_pskip=1 / chroma_qp_offset=-3 / threads=3 / sliced_threads=0 / nr=0 / decimate=1 / interlaced=0 / bluray_compat=0 / constrained_intra=0 / bframes=8 / b_pyramid=2 / b_adapt=1 / b_bias=0 / direct=3 / weightb=1 / open_gop=0 / weightp=0 / keyint=250 / keyint_min=23 / scenecut=40 / intra_refresh=0 / rc_lookahead=60 / rc=2pass / mbtree=1 / bitrate=2576 / ratetol=1.0 / qcomp=0.60 / qpmin=0 / qpmax=69 / qpstep=4 / cplxblur=20.0 / qblur=0.5 / ip_ratio=1.40 / aq=1:1.00
Язык : English
Default : Да
Forced : Нет
Аудио #1
Идентификатор : 2
Формат : AC-3
Формат/Информация : Audio Coding 3
Расширение режима : CM (complete main)
Параметр Endianness формата : Big
Идентификатор кодека : A_AC3
Продолжительность : 1 ч. 33 м.
Вид битрейта : Постоянный
Битрейт : 384 Кбит/сек
Каналы : 6 каналов
Расположение каналов : Front: L C R, Side: L R, LFE
Частота : 48,0 КГц
Битовая глубина : 16 бит
Метод сжатия : С потерями
Размер потока : 257 Мбайт (11%)
Заголовок : Источник DVD
Язык : Russian
Default : Да
Forced : Нет
Аудио #2
Идентификатор : 3
Формат : AC-3
Формат/Информация : Audio Coding 3
Расширение режима : CM (complete main)
Параметр Endianness формата : Big
Идентификатор кодека : A_AC3
Продолжительность : 1 ч. 33 м.
Вид битрейта : Постоянный
Битрейт : 384 Кбит/сек
Каналы : 6 каналов
Расположение каналов : Front: L C R, Side: L R, LFE
Частота : 48,0 КГц
Битовая глубина : 16 бит
Метод сжатия : С потерями
Размер потока : 257 Мбайт (11%)
Заголовок : Источник BDRemux
Язык : English
Default : Нет
Forced : Нет
Текст #1
Идентификатор : 4
Формат : UTF-8
Идентификатор кодека : S_TEXT/UTF8
Идентификатор кодека/Информация : UTF-8 Plain Text
Заголовок : Источник DVD
Язык : Russian
Default : Нет
Forced : Нет
Текст #2
Идентификатор : 5
Формат : UTF-8
Идентификатор кодека : S_TEXT/UTF8
Идентификатор кодека/Информация : UTF-8 Plain Text
Заголовок : Источник DVD
Язык : English
Default : Нет
Forced : Нет
Текст #3
Идентификатор : 6
Формат : UTF-8
Идентификатор кодека : S_TEXT/UTF8
Идентификатор кодека/Информация : UTF-8 Plain Text
Заголовок : Источник DVD
Язык : French
Default : Нет
Forced : Нет
Меню
00:00:00.000 : ru:00:00:00.000000000
00:05:00.000 : :00:05:00.000000000
00:10:00.000 : :00:10:00.000000000
00:15:00.000 : :00:15:00.000000000
00:20:00.000 : :00:20:00.000000000
00:25:00.000 : :00:25:00.000000000
00:30:00.000 : :00:30:00.000000000
00:35:00.000 : :00:35:00.000000000
00:40:00.000 : :00:40:00.000000000
00:45:00.000 : :00:45:00.000000000
00:50:00.000 : :00:50:00.000000000
00:55:00.000 : :00:55:00.000000000
01:00:00.000 : :01:00:00.000000000
01:05:00.000 : :01:05:00.000000000
01:10:00.000 : :01:10:00.000000000
01:15:00.000 : :01:15:00.000000000
01:20:00.000 : :01:20:00.000000000
01:25:00.000 : :01:25:00.000000000
01:30:00.000 : :01:30:00.000000000
Черепашки-ниндзя 2: Тайна изумрудного зелья / Teenage Mutant Ninja Turtles II: The Secret of the Ooze
Год выпуска: 1991
Страна: США
Жанр: семейный фантастическо-юмористический боевик
Продолжительность: 1:28:32
Перевод: Профессиональный (Многоголосый, закадровый)
Субтитры: Русский; Английский; Франсузкий;
Режиссер: Майкл Прессмэн
В ролях: Майкл Джей Уайт, Пейдж Турко, Дэвид Уорнер, Эрни Рейес, Франсуа Чау, Суси Эссман, Майкл Прессмэн, Фрэнк Уэлкер, Майк Киммел
Описание: Битва продолжается и нет ей конца. На этот раз их подруга Эйприл случайным образом обнаружила откуда родом эта радиоактивная жидкость, которая помогла им мутировать. Но Шредер тоже не так глуп, как кажется, его помощники смогли раздобыть такую же колбу. Шредер начал создавать мутантов для борьбы с черепахами. Но и сам после получения хорошего пинка от черепах угодил в эту слизь и начал мутировать в Супер-Шредера. И сейчас у черепах не одна проблема, а целых три. Это Шредер и два его мутанта (Токо и Рейзор). Решить их не так то просто, так как каждая из проблем раза в два больше ростом и силой чем черепашка...
Доп. информация: IMDB - 5.7
КиноПоиск - 6.85

Качество: BDRip-AVC
Формат: MKV
Видео кодек: AVC
Аудио кодек: AC3
Видео: MPEG-4 Video(H.264); 1040x560; ~24,000 Кадра/сек; 2765 Кбит/сек;
Аудио #1: AC-3; 48,0 КГц; 6-ch; 384 Кбит/сек (Русский)
Аудио #2: AC-3; 48,0 КГц; 6-ch; 384 Кбит/сек (English)

Скриншоты





MediaINFO

Общее
Уникальный идентификатор : 200691850152170429992865232313560582438 (0x96FBD8294DE8C6D3861947305997C926)
Полное имя : \\Studiosky\h\Turtles_Trilogy_(AZIK6249)\Cherepashki-nindzja.2.Tajna.izumrudnogo.zel'ja.1991.BDRip-AVC.(AZIK6249).mkv
Формат : Matroska
Версия формата : Version 2
Размер файла : 2,19 Гбайт
Продолжительность : 1 ч. 28 м.
Общий поток : 3533 Кбит/сек
Название фильма : Cherepashki-nindzja.2.Tajna.izumrudnogo.zel'ja.1991.BDRip-AVC-AVP Studio
Дата кодирования : UTC 2012-03-11 03:05:20
Программа кодирования : mkvmerge v5.2.0 ('I can't explain') built on Dec 18 2011 18:12:03
Библиотека кодирования : libebml v1.2.3 + libmatroska v1.3.0
Видео
Идентификатор : 1
Формат : AVC
Формат/Информация : Advanced Video Codec
Профиль формата : [email protected]
Параметр CABAC формата : Да
Параметр ReFrames формата : 8 кадров
Идентификатор кодека : V_MPEG4/ISO/AVC
Продолжительность : 1 ч. 28 м.
Битрейт : 2765 Кбит/сек
Ширина : 1040 пикселей
Высота : 560 пикселей
Соотношение сторон : 1,85:1
Режим частоты кадров : Постоянный
Частота кадров : 23,976 кадра/сек
Цветовое пространство : YUV
Субдискретизация насыщенности : 4:2:0
Битовая глубина : 8 бит
Тип развёртки : Прогрессивная
Бит/(Пиксели*Кадры) : 0.198
Размер потока : 1,67 Гбайт (76%)
Заголовок : Источник BDRemux
Библиотека кодирования : x264 core 119 r2106 07efeb4
Настройки программы : cabac=1 / ref=8 / deblock=1:-2:-1 / analyse=0x3:0x113 / me=umh / subme=9 / psy=1 / psy_rd=1.00:0.10 / mixed_ref=1 / me_range=32 / chroma_me=1 / trellis=1 / 8x8dct=1 / cqm=0 / deadzone=21,11 / fast_pskip=1 / chroma_qp_offset=-3 / threads=3 / sliced_threads=0 / nr=0 / decimate=1 / interlaced=0 / bluray_compat=0 / constrained_intra=0 / bframes=8 / b_pyramid=2 / b_adapt=1 / b_bias=0 / direct=3 / weightb=1 / open_gop=0 / weightp=0 / keyint=250 / keyint_min=23 / scenecut=40 / intra_refresh=0 / rc_lookahead=60 / rc=2pass / mbtree=1 / bitrate=2765 / ratetol=1.0 / qcomp=0.60 / qpmin=0 / qpmax=69 / qpstep=4 / cplxblur=20.0 / qblur=0.5 / ip_ratio=1.40 / aq=1:1.00
Язык : English
Default : Да
Forced : Нет
Аудио #1
Идентификатор : 2
Формат : AC-3
Формат/Информация : Audio Coding 3
Расширение режима : CM (complete main)
Параметр Endianness формата : Big
Идентификатор кодека : A_AC3
Продолжительность : 1 ч. 28 м.
Вид битрейта : Постоянный
Битрейт : 384 Кбит/сек
Каналы : 6 каналов
Расположение каналов : Front: L C R, Side: L R, LFE
Частота : 48,0 КГц
Битовая глубина : 16 бит
Метод сжатия : С потерями
Размер потока : 243 Мбайт (11%)
Заголовок : Источник DVD
Язык : Russian
Default : Да
Forced : Нет
Аудио #2
Идентификатор : 3
Формат : AC-3
Формат/Информация : Audio Coding 3
Расширение режима : CM (complete main)
Параметр Endianness формата : Big
Идентификатор кодека : A_AC3
Продолжительность : 1 ч. 28 м.
Вид битрейта : Постоянный
Битрейт : 384 Кбит/сек
Каналы : 6 каналов
Расположение каналов : Front: L C R, Side: L R, LFE
Частота : 48,0 КГц
Битовая глубина : 16 бит
Метод сжатия : С потерями
Размер потока : 243 Мбайт (11%)
Заголовок : Источник DVD
Язык : English
Default : Нет
Forced : Нет
Текст #1
Идентификатор : 4
Формат : UTF-8
Идентификатор кодека : S_TEXT/UTF8
Идентификатор кодека/Информация : UTF-8 Plain Text
Заголовок : Источник DVD
Язык : Russian
Default : Нет
Forced : Нет
Текст #2
Идентификатор : 5
Формат : UTF-8
Идентификатор кодека : S_TEXT/UTF8
Идентификатор кодека/Информация : UTF-8 Plain Text
Заголовок : Источник DVD
Язык : English
Default : Нет
Forced : Нет
Текст #3
Идентификатор : 6
Формат : UTF-8
Идентификатор кодека : S_TEXT/UTF8
Идентификатор кодека/Информация : UTF-8 Plain Text
Заголовок : Источник DVD
Язык : French
Default : Нет
Forced : Нет
Меню
00:00:00.000 : ru:00:00:00.000000000
00:05:00.000 : :00:05:00.000000000
00:10:00.000 : :00:10:00.000000000
00:15:00.000 : :00:15:00.000000000
00:20:00.000 : :00:20:00.000000000
00:25:00.000 : :00:25:00.000000000
00:30:00.000 : :00:30:00.000000000
00:35:00.000 : :00:35:00.000000000
00:40:00.000 : :00:40:00.000000000
00:45:00.000 : :00:45:00.000000000
00:50:00.000 : :00:50:00.000000000
00:55:00.000 : :00:55:00.000000000
01:00:00.000 : :01:00:00.000000000
01:05:00.000 : :01:05:00.000000000
01:10:00.000 : :01:10:00.000000000
01:15:00.000 : :01:15:00.000000000
01:20:00.000 : :01:20:00.000000000
01:25:00.000 : :01:25:00.000000000
Черепашки-ниндзя 3 / Teenage Mutant Ninja Turtles III
Год выпуска: 1993
Страна: США, Гонконг
Жанр: семейный фантастическо-юмористический боевик
Продолжительность: 1:35:46
Перевод: Профессиональный (Многоголосый, закадровый)
Субтитры: Русский; Английский; Франсузкий;
Режиссер: Стюарт Гиллард
В ролях: Элиас Котеас, Пейдж Турко, Стюарт Уилсон, Саб Симоно, Вивиан Ву, Марк Казо, Мэтт Хилл, Джим Рапоса, Дэвид Фрайзер, Генри Хаяши, Джон Эйлуорд, Мак Такано, Steve Akahoshi, Кент Ким, Кен Кенсей, Трэвис А. Мун, Тэд Хорино, Глен Чин
Описание: Эйприл где-то на распродаже купила Сплинтеру старинный японский скипетр, и ещё всяких других подарков для своих друзей черепашек. Как выяснилось, этот скипетр — не просто обычный антиквариат, а прообраз машины времени. Но он работает только в том случае, когда вес путешественников во времени одинаков с обоих сторон.
Так случилось, что скипетр перенес Эйприл в феодальную Японию, в 1393-й год. Следом за ней отправились и черепашки, но вот беда, вместо того, чтобы попасть в храм, где по идее должен был находится скипетр, они оказываются посреди поля сражения. Во всей этой неразберихе теряется Микеланджело со скипетром. И теперь черепашкам нужно не только спасти Эйприл, но и вернуть скипетр. В нашем времени в этот момент тоже совсем не скучно.
Доп. информация: IMDB - 4.6
КиноПоиск - 6.46

Качество: BDRip-AVC
Формат: MKV
Видео кодек: AVC
Аудио кодек: AC3
Видео: MPEG-4 Video(H.264); 1024x576; ~24,000 Кадра/сек; 2498 Кбит/сек;
Аудио #1: AC-3; 48,0 КГц; 6-ch; 384 Кбит/сек (Русский)
Аудио #2: AC-3; 48,0 КГц; 6-ch; 384 Кбит/сек (English)

Скриншоты





MediaINFO

Общее
Уникальный идентификатор : 202795078687870278011188190984551848836 (0x9890E95591BBFC00975D705D4130DB84)
Полное имя : \\Studiosky\h\Turtles_Trilogy_(AZIK6249)\Cherepashki-nindzja.3.1993.BDRip-AVC.(AZIK6249).mkv
Формат : Matroska
Версия формата : Version 2
Размер файла : 2,19 Гбайт
Продолжительность : 1 ч. 35 м.
Общий поток : 3266 Кбит/сек
Название фильма : Cherepashki-nindzja.3.1993.BDRip-AVC.2.18-AVP Studio
Дата кодирования : UTC 2012-03-15 05:49:03
Программа кодирования : mkvmerge v5.2.0 ('I can't explain') built on Dec 18 2011 18:12:03
Библиотека кодирования : libebml v1.2.3 + libmatroska v1.3.0
Видео
Идентификатор : 1
Формат : AVC
Формат/Информация : Advanced Video Codec
Профиль формата : [email protected]
Параметр CABAC формата : Да
Параметр ReFrames формата : 8 кадров
Идентификатор кодека : V_MPEG4/ISO/AVC
Продолжительность : 1 ч. 35 м.
Битрейт : 2498 Кбит/сек
Ширина : 1024 пикселя
Высота : 576 пикселей
Соотношение сторон : 16:9
Режим частоты кадров : Постоянный
Частота кадров : 23,976 кадра/сек
Цветовое пространство : YUV
Субдискретизация насыщенности : 4:2:0
Битовая глубина : 8 бит
Тип развёртки : Прогрессивная
Бит/(Пиксели*Кадры) : 0.177
Размер потока : 1,63 Гбайт (74%)
Заголовок : Источник BDRemux
Библиотека кодирования : x264 core 119 r2106 07efeb4
Настройки программы : cabac=1 / ref=8 / deblock=1:-2:-1 / analyse=0x3:0x113 / me=umh / subme=9 / psy=1 / psy_rd=1.00:0.10 / mixed_ref=1 / me_range=32 / chroma_me=1 / trellis=1 / 8x8dct=1 / cqm=0 / deadzone=21,11 / fast_pskip=1 / chroma_qp_offset=-3 / threads=3 / sliced_threads=0 / nr=0 / decimate=1 / interlaced=0 / bluray_compat=0 / constrained_intra=0 / bframes=8 / b_pyramid=2 / b_adapt=1 / b_bias=0 / direct=3 / weightb=1 / open_gop=0 / weightp=0 / keyint=250 / keyint_min=23 / scenecut=40 / intra_refresh=0 / rc_lookahead=60 / rc=2pass / mbtree=1 / bitrate=2498 / ratetol=1.0 / qcomp=0.60 / qpmin=0 / qpmax=69 / qpstep=4 / cplxblur=20.0 / qblur=0.5 / ip_ratio=1.40 / aq=1:1.00
Язык : English
Default : Да
Forced : Нет
Аудио #1
Идентификатор : 2
Формат : AC-3
Формат/Информация : Audio Coding 3
Расширение режима : CM (complete main)
Параметр Endianness формата : Big
Идентификатор кодека : A_AC3
Продолжительность : 1 ч. 35 м.
Вид битрейта : Постоянный
Битрейт : 384 Кбит/сек
Каналы : 6 каналов
Расположение каналов : Front: L C R, Side: L R, LFE
Частота : 48,0 КГц
Битовая глубина : 16 бит
Метод сжатия : С потерями
Размер потока : 263 Мбайт (12%)
Заголовок : Источник DVD
Язык : Russian
Default : Да
Forced : Нет
Аудио #2
Идентификатор : 3
Формат : AC-3
Формат/Информация : Audio Coding 3
Расширение режима : CM (complete main)
Параметр Endianness формата : Big
Идентификатор кодека : A_AC3
Продолжительность : 1 ч. 35 м.
Вид битрейта : Постоянный
Битрейт : 384 Кбит/сек
Каналы : 6 каналов
Расположение каналов : Front: L C R, Side: L R, LFE
Частота : 48,0 КГц
Битовая глубина : 16 бит
Метод сжатия : С потерями
Размер потока : 263 Мбайт (12%)
Заголовок : Источник BDRemux
Язык : English
Default : Нет
Forced : Нет
Текст #1
Идентификатор : 4
Формат : UTF-8
Идентификатор кодека : S_TEXT/UTF8
Идентификатор кодека/Информация : UTF-8 Plain Text
Заголовок : Источник DVD
Язык : Russian
Default : Нет
Forced : Нет
Текст #2
Идентификатор : 5
Формат : UTF-8
Идентификатор кодека : S_TEXT/UTF8
Идентификатор кодека/Информация : UTF-8 Plain Text
Заголовок : Источник DVD
Язык : English
Default : Нет
Forced : Нет
Текст #3
Идентификатор : 6
Формат : UTF-8
Идентификатор кодека : S_TEXT/UTF8
Идентификатор кодека/Информация : UTF-8 Plain Text
Заголовок : Источник DVD
Язык : French
Default : Нет
Forced : Нет


Последний раз редактировалось: AZIK6249 (2013-08-25 16:14), всего редактировалось 2 раз(а)

Создавать темы 25-Авг-2013 13:55

[Профиль]  [ЛС] 

mk

Стаж: 6 лет 9 месяцев

Сообщений: 33

Симпатии: 2

детство.+5

Создавать темы 25-Авг-2013 23:03

[Профиль]  [ЛС] 

ислом

Стаж: 5 лет 1 месяц

Сообщений: 32

Симпатии: 2

Самый лучший Фильм это Гарри Поттер!

Создавать темы 26-Авг-2013 00:27

[Профиль]  [ЛС] 

uTorrent

Стаж: 5 лет

Сообщений: 149

Симпатии: 1

ислом, в то время не было гарри поттера

Создавать темы 28-Авг-2013 15:23

[Профиль]  [ЛС] 

AZIK6249 ®

Стаж: 4 года 4 месяца

Сообщений: 7

у меня на раздаче стоит

Создавать темы 28-Авг-2013 17:58

[Профиль]  [ЛС] 

Juravle_93

Стаж: 4 года 8 месяцев

Сообщений: 87

Симпатии: 7

Обещали что новый фильм Ч е р еп а ш к и Н и н д з я выйдет в 2014 или 2015 выйдет

Создавать темы 28-Авг-2013 19:00

[Профиль]  [ЛС] 

alexcash78

Стаж: 4 года 11 месяцев

Сообщений: 31

Симпатии: 2

Я влился в раздачу...только ночью почти нет скорости у меня, а днём тоже максимум, 30 кб/сек. могу раздавать...у меня УО и выше к сожалению не раздаётся.

Создавать темы 09-Окт-2013 02:55

[Профиль]  [ЛС] 

azizxon7979

Стаж: 5 лет 1 месяц

Сообщений: 33

Симпатии: 2

раздавайти ребята

Создавать темы 29-Мар-2014 09:50

[Профиль]  [ЛС] 

bionicl

Стаж: 4 года 4 месяца

Сообщений: 4

ребят вернитусь кто нить

Создавать темы 13-Авг-2014 17:51

[Профиль]  [ЛС] 

SMaIL

Стаж: 3 года 8 месяцев

Сообщений: 740

Симпатии: 233

864920Полного источника не было: 3 дня

Создавать темы 13-Авг-2014 17:59

[Профиль]  [ЛС] 

secureit

Стаж: 4 года 9 месяцев

Сообщений: 21

Симпатии: 3

вернитесь, дайте скачать

Создавать темы 09-Ноя-2014 21:39

[Профиль]  [ЛС] 

Жанибек

Стаж: 3 года 10 месяцев

Сообщений: 35

Симпатии: 3

попробуйте здесь скачать может получется Черепашки-ниндзя: Трилогия / Teenage Mutant Ninja Turtles: Trilogy(Стив Бэррон, Майкл Прессман, Стюарт Гиллард / Steve Barron, Michael Pressman, Stuart Gillard) [1990-1993 г., Фантастика, боевик, комедия, приключения, семейный, HDRip-AVC] http://Ooops/viewtopic.php?t=42318

Создавать темы 24-Янв-2016 10:48

[Профиль]  [ЛС] 

Жанибек

Стаж: 3 года 10 месяцев

Сообщений: 35

Симпатии: 3

почему не раздаётся уже 4 личеров

Создавать темы 24-Янв-2016 15:38

[Профиль]  [ЛС] 
Показать сообщения:    
Ответить на тему

Текущее время: 24-Окт 07:28

Часовой пояс: UTC + 5



Вы не можете начинать темы
Вы не можете отвечать на сообщения
Вы не можете редактировать свои сообщения
Вы не можете удалять свои сообщения
Вы не можете голосовать в опросах
Вы не можете прикреплять файлы к сообщениям
Вы не можете скачивать файлы