Мастер тай-цзи / Man of Tai Chi (Киану Ривз) [2013 г., боевик, HDTVRip] VO

Ответить на тему
 

igor1968 ®

Стаж: 5 лет 6 месяцев

Сообщений: 366

Симпатии: 197

Мастер тай-цзи / Man of Tai Chi Год выпуска: 2013
Страна:
Жанр: Боевик
Продолжительность: 01:40:59.879
Перевод: Любительский (одноголосый) [Ворон]
Примечание: Присутствуют вшитые английские и китайские субтитры.
Режиссер: Киану Ривз
В ролях: Тайгер Ху Чен Киану Ривз Карен Мок Саймон Ям Майкл Чан Цин Е
Ю Хай Сэм Ли Ико Ювайс Брахим Ачаббаке ...
Пекин. Амбициозный юноша Чэнь Линь-Ху по кличке «Тигр» подрабатывает скромным курьером, но после работы он превращается в молодую звезду боевых искусств, постепенно оттачивая свои навыки, следуя традициям Тайцзи Лин Кун. Обучившись размеренным и мирным движениям из Тайцзи, он приспособил их для бойцовских соревнований.
Донака Марк, скрываясь от гонконгской полиции, попадает в другой столичный мегаполис, где царит неразбериха и хаос, и открывает там подпольный бойцовский клуб, в котором реальные деньги можно заработать, побеждая противников в поединках без правил, транслируемых в прямом эфире богатым клиентам.
Подыскивая новую «звезду», Донака пытается приманить Тигра обещанием лёгкого заработка. Вхождение в этот мир выявляет самую тёмную сторону Чэнь Линь-Ху, но ему необходимы наличные. Его навыки помогают ему на ринге, но сможет ли он, сражаясь, сохранить в себе чистоту и добропорядочность?

 
Премьера 5 июля 2013, ...
Релиз на DVD 31 октября 2013, «Двадцатый Век Фокс СНГ», ...
Релиз на Blu-Ray31 октября 2013, «Двадцатый Век Фокс СНГ», ...
Качество: HDTVRip
Формат: AVI
Видео кодек: XviD
Аудио кодек: AC3
Видео: 720x304 (2.37:1), 25 fps, XviD build 50 ~1735 kbps avg, 0.32 bit/pixel
Аудио: 48 kHz, AC3 Dolby Digital, 2/0 (L,R) ch, ~192.00 kbps avg

MediaInfo

General
Complete name : Master.Taj-Czy.2013.Lt.HDTVRip.1400MB.avi
Format : AVI
Format/Info : Audio Video Interleave
File size : 1.37 GiB
Duration : 1h 40mn
Overall bit rate : 1 938 Kbps
Writing application : VirtualDubMod 1.5.10.2 (build 2540/release)
Writing library : VirtualDubMod build 2540/release
Video
ID : 0
Format : MPEG-4 Visual
Format profile : Advanced [email protected]
Format settings, BVOP : 2
Format settings, QPel : No
Format settings, GMC : No warppoints
Format settings, Matrix : Default (MPEG)
Codec ID : XVID
Codec ID/Hint : XviD
Duration : 1h 40mn
Bit rate : 1 736 Kbps
Width : 720 pixels
Height : 304 pixels
Display aspect ratio : 2.35:1
Frame rate : 25.000 fps
Color space : YUV
Chroma subsampling : 4:2:0
Bit depth : 8 bits
Scan type : Progressive
Compression mode : Lossy
Bits/(Pixel*Frame) : 0.317
Stream size : 1.22 GiB (90%)
Writing library : XviD 1.2.1 (UTC 2008-12-04)
Audio
ID : 1
Format : AC-3
Format/Info : Audio Coding 3
Mode extension : CM (complete main)
Codec ID : 2000
Duration : 1h 40mn
Bit rate mode : Constant
Bit rate : 192 Kbps
Channel(s) : 2 channels
Channel positions : Front: L R
Sampling rate : 48.0 KHz
Bit depth : 16 bits
Compression mode : Lossy
Stream size : 139 MiB (10%)
Alignment : Split accross interleaves
Interleave, duration : 40 ms (1.00 video frame)
Interleave, preload duration : 500 ms

Скриншоты



Последний раз редактировалось: igor1968 (2013-08-26 21:23), всего редактировалось 2 раз(а)

Создавать темы 25-Авг-2013 18:02

[Профиль]  [ЛС] 

Butty

Стаж: 5 лет

Сообщений: 96

Симпатии: 6

Лучше лицуху подожду ..

Создавать темы 25-Авг-2013 18:37

[Профиль]  [ЛС] 

Jnec

Стаж: 4 года 11 месяцев

Сообщений: 165

Спасибо большое!!!

Создавать темы 26-Авг-2013 18:32

[Профиль]  [ЛС] 

western

Стаж: 4 года 3 месяца

Сообщений: 4

народ пожалуста встанте на раздаку за рания спосибо

Создавать темы 28-Авг-2013 00:17

[Профиль]  [ЛС] 

Reina

Стаж: 4 года 2 месяца

Сообщений: 164

Симпатии: 76

Ожидала конечно большого от этого фильма (особенно от Киану Ривз).... фильм так себе...... скачала, посмотрела, удалила... типичный сюжет

Создавать темы 28-Авг-2013 15:31

[Профиль]  [ЛС] 

IceWolf

Стаж: 7 лет 8 месяцев

Сообщений: 21

pamagite skachat .............]

Создавать темы 17-Сен-2013 10:21

[Профиль]  [ЛС] 

N1NTEND0

Стаж: 5 лет 1 месяц

Сообщений: 21

Если кому интересно мое мнение, то фильм на мой взгляд отличный. Смотрел несколько раз, но Киану не подходит роль злодея)

Создавать темы 06-Окт-2013 21:22

[Профиль]  [ЛС] 

Dimon2627

Стаж: 5 лет 7 месяцев

Сообщений: 25

Ожидала конечно большого от этого фильма (особенно от Киану Ривз).... фильм так себе...... скачала, посмотрела, удалила... типичный сюжет
Полностью согласен! Ничего интересного!

Создавать темы 08-Окт-2013 10:00

[Профиль]  [ЛС] 

Shakir

Стаж: 7 лет 1 месяц

Сообщений: 16

Симпатии: 4

скачала, посмотрела, удалила...
Красивые слова

Создавать темы 09-Окт-2013 19:12

[Профиль]  [ЛС] 

pro100

Стаж: 3 года 11 месяцев

Сообщений: 6

как качать

Создавать темы 13-Окт-2013 19:26

[Профиль]  [ЛС] 

victor0778

Стаж: 6 лет 7 месяцев

Сообщений: 1670

Симпатии: 142

Мастер тай-цзи / Man of Tai Chi (Киану Ривз / Keanu Reeves) [2013, Китай, боевик, HDRip] MVO

Создавать темы 22-Ноя-2013 07:21

[Профиль]  [ЛС] 
Показать сообщения:    
Ответить на тему

Текущее время: 26-Сен 10:40

Часовой пояс: UTC + 5



Вы не можете начинать темы
Вы не можете отвечать на сообщения
Вы не можете редактировать свои сообщения
Вы не можете удалять свои сообщения
Вы не можете голосовать в опросах
Вы не можете прикреплять файлы к сообщениям
Вы не можете скачивать файлы