Мерзлая земля / The Frozen Ground (Скотт Уолкер) Триллер, 2013 [WEB-DLRip звук с TS] Dub

Ответить на тему
 

ruslan08 ®

Стаж: 5 лет 10 месяцев

Сообщений: 73

Симпатии: 7

Мерзлая земля / The Frozen Ground«Охотник становится жертвой»- Год выпуска: 2013
Производство: США, Emmett/Furla Films, Amber Entertainment, Sakonnet Capital Partners
Жанр: Триллер
Продолжительность: 01:45:33
Перевод: Дублированный [звук с TS]
Субтитры: Отсутствуют
Режиссер: Скотт Уолкер
Продюсер: Фифти Сент, Ремингтон Чейз, Рэндолл Эмметт
Актеры: Николас Кейдж, Джон Кьюсак, Фифти Сент, Ванесса Энн Хадженс, Дин Норрис, Кэтрин ЛаНаса, Рада Митчелл
Описание фильма:
Главный герой — печально известный серийный убийца Роберт Хансен. На протяжении 12 лет приличный семьянин Хансен похитил и убил порядка 24 женщин. Он вывозил своих жертв на Аляску, где выпускал в лес и охотился на них. Сбежать удалось только 17-летней Синди Полсон. Чудом выжившую девушку-подростка на улице находит принципиальный полицейский. Благодаря ее помощи, он начинает поиски преступника.


рейтинг MPAA рейтинг R лицам до 17 лет обязательно присутствие взрослого
Качество: WEB-DLRip
Формат: AVI
Видео кодек: XviD
Аудио кодек: MP3
Видео: - XviD, 786 kb/s, 640x272, 23,976 fps
Аудио: - MP3, 2 ch, 128 kb/s, 48,0 КГц

MediaInfo:

Общее
Формат                                   : AVI
Формат/Информация                        : Audio Video Interleave
Размер файла                             : 697 Мбайт
Продолжительность                        : 1 ч. 45 м.
Общий поток                              : 924 Кбит/сек
Программа кодирования                    : VirtualDubMod 1.5.10.2 (build 2540/release)
Библиотека кодирования                   : VirtualDubMod build 2540/release
Видео
Идентификатор                            : 0
Формат                                   : MPEG-4 Visual
Профиль формата                          : Advanced [email protected]
Параметр BVOP формата                    : 2
Параметр QPel формата                    : Нет
Параметр GMC формата                     : Без точки перехода
Параметр матрицы формата                 : Default (H.263)
Режим смешивания                         : Сжатый битовый поток
Идентификатор кодека                     : XVID
Идентификатор кодека/Подсказка           : XviD
Продолжительность                        : 1 ч. 45 м.
Битрейт                                  : 786 Кбит/сек
Ширина                                   : 640 пикселей
Высота                                   : 272 пикселя
Соотношение сторон                       : 2,35:1
Частота кадров                           : 23,976 кадра/сек
Цветовое пространство                    : YUV
Субдискретизация насыщенности            : 4:2:0
Битовая глубина                          : 8 бит
Тип развёртки                            : Прогрессивная
Метод сжатия                             : С потерями
Бит/(Пиксели*Кадры)                      : 0.188
Размер потока                            : 594 Мбайт (85%)
Библиотека кодирования                   : XviD 64
Аудио
Идентификатор                            : 1
Формат                                   : MPEG Audio
Версия формата                           : Version 1
Профиль формата                          : Layer 3
Идентификатор кодека                     : 55
Идентификатор кодека/Подсказка           : MP3
Продолжительность                        : 1 ч. 45 м.
Вид битрейта                             : Постоянный
Битрейт                                  : 128 Кбит/сек
Каналы                                   : 2 канала
Частота                                  : 48,0 КГц
Метод сжатия                             : С потерями
Размер потока                            : 96,6 Мбайт (14%)
Выравнивание                             : Соединение по промежуткам
Продолжительность промежутка             : 42  мс. (1,00 видеокадр)
Время предзагрузки промежутка            : 504  мс.
Библиотека кодирования                   : LAME3.99r
Настройки программы                      : -m s -V 4 -q 2 -lowpass 17 -b 128

Скриншоты

Создавать темы 25-Авг-2013 23:55

[Профиль]  [ЛС] 

Tiger Fors

Стаж: 5 лет 7 месяцев

Сообщений: 19

по последнему скрину не видно что земля мёрзнет)))))))

Создавать темы 26-Авг-2013 00:03

[Профиль]  [ЛС] 

Топик был перенесен из форума CamRip\Telesync\SATRip\TVRip в форум Фильмы за 2013 (новинки)

Grock

Создавать темы 26-Авг-2013 00:40

 

kamaell

Стаж: 4 года 7 месяцев

Сообщений: 14

Зачем создавать раздачу не имея полного источника, теперь ждем пока будет на соседнем трекере полный источник, а потом и здесь.

Создавать темы 26-Авг-2013 17:39

[Профиль]  [ЛС] 

ruslan08 ®

Стаж: 5 лет 10 месяцев

Сообщений: 73

Симпатии: 7

Зачем создавать раздачу не имея полного источника, теперь ждем пока будет на соседнем трекере полный источник, а потом и здесь.
Ребята у нас целый день не было электричество!!! bu md

Создавать темы 26-Авг-2013 23:11

[Профиль]  [ЛС] 

Nodir91

Стаж: 4 года 10 месяцев

Сообщений: 51

Симпатии: 1

:D

Создавать темы 02-Окт-2013 21:52

[Профиль]  [ЛС] 
Показать сообщения:    
Ответить на тему

Текущее время: 23-Ноя 23:46

Часовой пояс: UTC + 5



Вы не можете начинать темы
Вы не можете отвечать на сообщения
Вы не можете редактировать свои сообщения
Вы не можете удалять свои сообщения
Вы не можете голосовать в опросах
Вы не можете прикреплять файлы к сообщениям
Вы не можете скачивать файлы