Преображение / The Makeover (Джон Грэй) [2013 г., Романтическая комедия, HDTVRip]

Ответить на тему
 

igor1968 ®

Стаж: 5 лет 6 месяцев

Сообщений: 366

Симпатии: 197

Преображение / The Makeover
Год выпуска: 2013
Страна:
Жанр: Романтическая комедия
Продолжительность: 01:36:14.902
Перевод: Профессиональный (двухголосый)
Режиссер: Джон Грэй
В ролях: Джулия Стайлз , Дэвид Уолтон , Камрин Менхейм , Фрэнсис Фишер , Лонни Фармер , Альберт М. Чен , Моурин Кейллер , Нада Деспотович , Билл Мутос
Ханна Хиггинс умный консультант в области образования. Она выставляет свою кандидатуру в конгресс, чтобы продвинуть реформу образования. Но проблема в том, что Ханна ужасна как кандидат — ее холодная, элитарная персона отталкивает бостонских избирателей. Ханна Хиггинс и ее деловой партнер Коллин Пикеринг не собираются так легко сдаваться. Они вербуют кандидата, который определенно является человеком из народа…
Качество: HDTVRip
Формат: AVI
Видео кодек: XviD
Аудио кодек: MP3
Видео: 688x384 (1.79:1), 23.976 fps, XviD build 64 ~979 kbps avg, 0.15 bit/pixel
Аудио: 44.100 kHz, MPEG Layer 3, 2 ch, ~96.00 kbps avg

MediaInfo

General
Complete name : Preobrazhenie.2013.HDTVrip.XviD.Rus.avi
Format : AVI
Format/Info : Audio Video Interleave
File size : 747 MiB
Duration : 1h 36mn
Overall bit rate : 1 085 Kbps
Movie name : Preobrazhenie.2013
Original source form/Distributed : the.makeover.2013.720p.hdtv.x264-2hd.mkv
Genre : Romantic Comedy
Copyright : 25KADR
Video
ID : 0
Format : MPEG-4 Visual
Format profile : Advanced [email protected]
Format settings, BVOP : 2
Format settings, QPel : No
Format settings, GMC : No warppoints
Format settings, Matrix : Default (MPEG)
Codec ID : XVID
Codec ID/Hint : XviD
Duration : 1h 36mn
Bit rate : 980 Kbps
Width : 688 pixels
Height : 384 pixels
Display aspect ratio : 16:9
Frame rate : 23.976 fps
Color space : YUV
Chroma subsampling : 4:2:0
Bit depth : 8 bits
Scan type : Progressive
Compression mode : Lossy
Bits/(Pixel*Frame) : 0.155
Stream size : 675 MiB (90%)
Writing library : XviD 64
Audio
ID : 1
Format : MPEG Audio
Format version : Version 1
Format profile : Layer 3
Mode : Joint stereo
Mode extension : Intensity Stereo + MS Stereo
Codec ID : 55
Codec ID/Hint : MP3
Duration : 1h 36mn
Bit rate mode : Constant
Bit rate : 96.0 Kbps
Channel(s) : 2 channels
Sampling rate : 44.1 KHz
Compression mode : Lossy
Stream size : 66.1 MiB (9%)
Alignment : Split accross interleaves
Interleave, duration : 42 ms (1.00 video frame)
Interleave, preload duration : 500 ms
Language : Russian

Скриншоты

Создавать темы 29-Авг-2013 04:50

[Профиль]  [ЛС] 

Jnec

Стаж: 4 года 11 месяцев

Сообщений: 165

Спасибо

Создавать темы 03-Сен-2013 13:32

[Профиль]  [ЛС] 
Показать сообщения:    
Ответить на тему

Текущее время: 23-Сен 12:40

Часовой пояс: UTC + 5



Вы не можете начинать темы
Вы не можете отвечать на сообщения
Вы не можете редактировать свои сообщения
Вы не можете удалять свои сообщения
Вы не можете голосовать в опросах
Вы не можете прикреплять файлы к сообщениям
Вы не можете скачивать файлы