Иллюзия обмана / Now You See Me (Луи Летерье) [2013 г., триллер, криминал, детектив, ..., HDRip]

Ответить на тему
 

igor1968 ®

Стаж: 5 лет 5 месяцев

Сообщений: 366

Симпатии: 197

Иллюзия обмана / Now You See Me Год выпуска: 2013
Страна:
Жанр: триллер, криминал, детектив, ...
Продолжительность: 01:55:21.713
Перевод: Профессиональный (полное дублирование)
Режиссер: Луи Летерье
В ролях: Марк Руффало (Dylan Rhodes), Джесси Айзенберг (J. Daniel Atlas), Вуди Харрельсон (Merritt McKinney), Айла Фишер (Henley Reeves), Дэйв Франко (Jack Wilder), Морган Фриман (Thaddeus Bradley), Мелани Лоран (Alma Dray), Майкл Кейн (Arthur Tressler), Майкл Келли (Agent Fuller), Коммон (Evans), Дэвид Уоршофски (Cowan), Хосе Гарсия (Etienne Forcier)
Команда лучших иллюзионистов мира проворачивает дерзкие ограбления прямо во время своих шоу, играя в кошки-мышки с агентами ФБР.- -Премьера
21 мая 2013, ...
Премьера
12 июня 2013, «Централ Партнершип»
релиз на DVD
17 сентября 2013, «CD Land», ...
релиз на Blu-Ray
17 сентября 2013, «CD Land», ...
Качество: HDRip
Формат: AVI
Видео кодек: XviD
Аудио кодек: MP3
Видео: 688x288 (2.39:1), 23.976 fps, XviD build 73 ~774 kbps avg, 0.16 bit/pixel
Аудио: 48 kHz, MPEG Layer 3, 2 ch, ~128.00 kbps avg

MediaInfo

General
Complete name : Illuzija.Obmana.2013.D.HDRip.7500MB.avi
Format : AVI
Format/Info : Audio Video Interleave
File size : 752 MiB
Duration : 1h 55mn
Overall bit rate : 912 Kbps
Writing application : VirtualDubMod 1.5.10.3 | www.virtualdub-fr.org || (build 2550/release)
Writing library : VirtualDubMod build 2550/release
Video
ID : 0
Format : MPEG-4 Visual
Format profile : Advanced [email protected]
Format settings, BVOP : 1
Format settings, QPel : No
Format settings, GMC : No warppoints
Format settings, Matrix : Custom
Codec ID : XVID
Codec ID/Hint : XviD
Duration : 1h 55mn
Bit rate : 774 Kbps
Width : 688 pixels
Height : 288 pixels
Display aspect ratio : 2.35:1
Frame rate : 23.976 fps
Color space : YUV
Chroma subsampling : 4:2:0
Bit depth : 8 bits
Scan type : Progressive
Compression mode : Lossy
Bits/(Pixel*Frame) : 0.163
Stream size : 639 MiB (85%)
Writing library : XviD 73
Audio
ID : 1
Format : MPEG Audio
Format version : Version 1
Format profile : Layer 3
Codec ID : 55
Codec ID/Hint : MP3
Duration : 1h 55mn
Bit rate mode : Constant
Bit rate : 128 Kbps
Channel(s) : 2 channels
Sampling rate : 48.0 KHz
Compression mode : Lossy
Stream size : 106 MiB (14%)
Alignment : Aligned on interleaves
Interleave, duration : 42 ms (1.00 video frame)
Interleave, preload duration : 504 ms
Writing library : LAME3.99r
Encoding settings : -m s -V 4 -q 2 -lowpass 17 -b 128

Скриншоты

Создавать темы 01-Сен-2013 15:37

[Профиль]  [ЛС] 

edgemza

Стаж: 6 лет 3 месяца

Сообщений: 191

Симпатии: 7

Фильм просто СУПЕР! Всем советую!

Создавать темы 03-Сен-2013 16:10

[Профиль]  [ЛС] 

pkzavr

Стаж: 4 года

Сообщений: 8

Да отличный фильмец, сильно отличается от всех стандартных американских. В конце будете сильно удивлены.

Создавать темы 03-Сен-2013 17:06

[Профиль]  [ЛС] 

arich

Стаж: 5 лет 7 месяцев

Сообщений: 17

Ооо да конец УДИВИТ. даже очень)))

Создавать темы 09-Сен-2013 00:05

[Профиль]  [ЛС] 

Jersey

Стаж: 6 лет 4 месяца

Сообщений: 14

хорош http://tas-ix.net/posting.php#ли перевод

Создавать темы 15-Сен-2013 11:40

[Профиль]  [ЛС] 
Показать сообщения:    
Ответить на тему

Текущее время: 19-Авг 14:08

Часовой пояс: UTC + 5



Вы не можете начинать темы
Вы не можете отвечать на сообщения
Вы не можете редактировать свои сообщения
Вы не можете удалять свои сообщения
Вы не можете голосовать в опросах
Вы не можете прикреплять файлы к сообщениям
Вы не можете скачивать файлы