Элитное общество / The Bling Ring (София Коппола / Sofia Coppola) [2013, США, Великобритания, Франция, Германия, Япония, драма, криминал, DVDRip][Лицензия]

Страницы :  1, 2  След.

Ответить на тему
 

Suxrob89 ®

Стаж: 7 лет 4 месяца

Сообщений: 933

Симпатии: 564

-Элитное общество / The Bling Ring-«Где украсть красивую жизнь?»- Страна: США, Великобритания, Франция, Германия, Япония
Жанр: драма, криминал
Год выпуска: 2013
Продолжительность: 01:26:34
Перевод: Профессиональный (дублированный)[Лицензия]
Cубтитры: нет
Оригинальная аудиодорожка: нет-Режиссер: София Коппола / Sofia Coppola-В ролях: Израэль Бруссар, Кэти Чанг, Таисса Фармига, Клер Элис Жюльен, Джорджия Рок, Эмма Уотсон, Лесли Манн, Карлос Миранда, Гэвин Россдэйл, Стэйси Эдвардс-Описание: В поисках адреналина и приключений пятеро отчаянных подростков ради прикола стали навещать богатые особняки в окрестностях Голливуда. Наведываясь в гости к Линдси Лохан, Орландо Блуму, Пэрис Хилтон и другим голливудским звездам, девушки, конечно, больше интересовались дизайнерской одеждой и драгоценностями, а юноши — просто деньгами. Совершив десять краж со взломом, ребятки награбили больше трех миллионов долларов…- -Качество видео: DVDRip
Формат видео: AVI
Видео: 720x384 (1.85:1), 25.000 fps, XVID ~2016 kbps avg, 0.292 bit/pixel
Аудио: 48 kHz, AC3, 6 ch, 384.00 kbps

MediaInfo

Общее
Полное имя : E:\Elitnoye.obshestvo.2013.D.DVDRip.avi
Формат : AVI
Формат/Информация : Audio Video Interleave
Размер файла : 1,46 Гбайт
Продолжительность : 1 ч. 26 м.
Общий поток : 2409 Кбит/сек
Программа кодирования : VirtualDubMod 1.5.10.3 | www.virtualdub-fr.org || (build 2550/release)
Библиотека кодирования : VirtualDubMod build 2550/release
Видео
Идентификатор : 0
Формат : MPEG-4 Visual
Профиль формата : Advanced [email protected]
Параметр BVOP формата : 1
Параметр QPel формата : Нет
Параметр GMC формата : Без точки перехода
Параметр матрицы формата : Выборочная
Идентификатор кодека : XVID
Идентификатор кодека/Подсказка : XviD
Продолжительность : 1 ч. 26 м.
Битрейт : 2016 Кбит/сек
Ширина : 720 пикселей
Высота : 384 пикселя
Соотношение сторон : 1,85:1
Частота кадров : 25,000 кадров/сек
Цветовое пространство : YUV
Субдискретизация насыщенности : 4:2:0
Битовая глубина : 8 бит
Тип развёртки : Прогрессивная
Метод сжатия : С потерями
Бит/(Пиксели*Кадры) : 0.292
Размер потока : 1,22 Гбайт (84%)
Библиотека кодирования : XviD 65
Аудио
Идентификатор : 1
Формат : AC-3
Формат/Информация : Audio Coding 3
Расширение режима : CM (complete main)
Параметр Endianness формата : Big
Идентификатор кодека : 2000
Продолжительность : 1 ч. 26 м.
Вид битрейта : Постоянный
Битрейт : 384 Кбит/сек
Каналы : 6 каналов
Расположение каналов : Front: L C R, Side: L R, LFE
Частота : 48,0 КГц
Битовая глубина : 16 бит
Метод сжатия : С потерями
Размер потока : 238 Мбайт (16%)
Выравнивание : Разделение по промежуткам
Продолжительность промежутка : 40 мс. (1,00 видеокадр)
Время предзагрузки промежутка : 500 мс.

Скриншоты

Создавать темы 01-Сен-2013 23:12

[Профиль]  [ЛС] 

elyor.uz88

Стаж: 5 лет 3 месяца

Сообщений: 15

Симпатии: 1

Кто уже посмотрел, оставьте отзыв

Создавать темы 02-Сен-2013 07:53

[Профиль]  [ЛС] 

Xakker_xxx

Стаж: 5 лет 7 месяцев

Сообщений: 53

Симпатии: 1

По рейтингу и темам нормално

Создавать темы 02-Сен-2013 08:12

[Профиль]  [ЛС] 

Jnec

Стаж: 5 лет 1 месяц

Сообщений: 165

Спасибо.

Создавать темы 03-Сен-2013 13:27

[Профиль]  [ЛС] 

ExtremeButcher

Стаж: 4 года 6 месяцев

Сообщений: 39

Симпатии: 1

Спасибо за лицензию, но нифига не качает( заранее сидерам и автору спасибо)

Создавать темы 03-Сен-2013 15:04

[Профиль]  [ЛС] 

Don_OmaR

Стаж: 5 лет 9 месяцев

Сообщений: 90

Симпатии: 5

Рейтинг Средний...можно смотреть фильмец?

Создавать темы 03-Сен-2013 17:07

[Профиль]  [ЛС] 

Жавлон

Стаж: 4 года 6 месяцев

Сообщений: 8

Просто скачай и посмотри, бесплатно же. Ждать отзывы....

Создавать темы 08-Сен-2013 11:33

[Профиль]  [ЛС] 

outoforder

Стаж: 5 лет 1 месяц

Сообщений: 812

Симпатии: 172

о даа фильмец снят гламурной кисо о гламурных кисо обоего пола. фантастический витиеватый захватывающий сюжет, интриги драмы расследования. это именно тот фильм который я хотел посмотреть всю жизнь........ ну а если серьезно то после просмотра этого набора видеоряда под попсовую музыку с лингвистическим запасом актеров меньше чем у эллочки людоедки, почему то называемого фильмом, сюжет комедии "идиократия" перестал казаться несбыточным - будущее настает уже сейчас. bz bz bz весь состав людей работавших над фильмом просто заслужил искупаться в бассейне наполненном "золотой малиной"

Создавать темы 08-Сен-2013 18:30

[Профиль]  [ЛС] 

a(R)chi

Стаж: 4 года 11 месяцев

Сообщений: 309

Симпатии: 12

фильм полный провал , по мне так это чистой воды бредятина.....
мировых звезд галивуда обокрали школьники! + к тому-же, у звезд ключ от дома, где хранится дорогие украшения и одежда которые стоят целое состояния , спрятан под коврикам... да да.. вы расслышали все правильно ""под коврикам""
если ставить оценку то 3/10 эт норм ( за актерский состав) и все!

_________________
Подпись отключена за нарушение правил форума

Создавать темы 09-Сен-2013 04:44

[Профиль]  [ЛС] 

ExtremeButcher

Стаж: 4 года 6 месяцев

Сообщений: 39

Симпатии: 1

Чёткий фильм, советую постотреть) но конец грустноват

Создавать темы 09-Сен-2013 20:04

[Профиль]  [ЛС] 

pacman

Стаж: 7 лет 1 месяц

Сообщений: 32

Симпатии: 1

Вахаха, весь сюжет в трёх скриншотах!

Создавать темы 09-Сен-2013 20:30

[Профиль]  [ЛС] 

murodjon

Стаж: 6 лет 10 месяцев

Сообщений: 163

Симпатии: 10

Эмма Уотсон только она нормальная

Создавать темы 11-Сен-2013 10:05

[Профиль]  [ЛС] 

t1man

Стаж: 5 лет 2 месяца

Сообщений: 75

a(R)chi, очень даже согласен с твоим мнением! (Фильм основана на реальных событиях) Ну когда же эти Америкосы перестанут обманывать весь Мир?

Создавать темы 13-Сен-2013 15:04

[Профиль]  [ЛС] 

t1man

Стаж: 5 лет 2 месяца

Сообщений: 75

Но всё же спасибо автору за труд!

Создавать темы 13-Сен-2013 15:04

[Профиль]  [ЛС] 

AiD10

Стаж: 7 лет 2 месяца

Сообщений: 22

Симпатии: 5

дайте скорости

Создавать темы 28-Сен-2013 17:04

[Профиль]  [ЛС] 
Показать сообщения:    
Ответить на тему

Текущее время: 17-Дек 01:32

Часовой пояс: UTC + 5



Вы не можете начинать темы
Вы не можете отвечать на сообщения
Вы не можете редактировать свои сообщения
Вы не можете удалять свои сообщения
Вы не можете голосовать в опросах
Вы не можете прикреплять файлы к сообщениям
Вы не можете скачивать файлы