Стартрек: Возмездие / Star Trek Into Darkness (Джей Джей Абрамс / J.J. Abrams) [2013 г., фантастика, боевик, приключения, HDRip](Лицензия)

Ответить на тему
 

Suxrob89 ®

Стаж: 7 лет 3 месяца

Сообщений: 933

Симпатии: 564

Стартрек: Возмездие-«Beyond the darkness, lies greatness.»- Оригинальное Название: Star Trek Into Darkness
Год Выпуска: 2013 г.
Cтрана: США
Жанр: фантастика, боевик, приключения
Продолжительность: 02:12:05-Перевод: Профессиональный (дублированный) (Лицензия)-Режиссер: Джей Джей Абрамс
В ролях: Крис Пайн, Закари Куинто, Бенедикт Камбербэтч, Саймон Пегг, Карл Урбан, Зои Салдана, Элис Ив, Джон Чо, Антон Ельчин, Питер Уэллер-Описание:
Вернувшись на Землю, команда корабля «Энтерпрайз» обнаруживает, что деятельность и принципы их организации подорваны изнутри. Флот скован необъяснимым ужасом и бездействует, пока мир все глубже погружается в бездну.
Капитан Кирк берет на себя руководство операцией по поимке злодея, ответственного за этот хаос и способного уничтожить все человечество.
В запутанной игре не на жизнь, а на смерть, любовь и дружба будут принесены в жертву ради единственного, что осталось у Кирка — его команды.- -Качество: HDRip
Формат: MKV
Видео кодек: H.264
Аудио кодек: AC3
Видео: 1 436 Kbps, 720x304
Аудио: AC3, 448 Kbps, 6 channel, 48.0 KHz, 16 bits-

Media info

F:\Стартрек - Возмездие (Star Trek Into Darkness) 2013 Rus Dub.mkv
General
Unique ID : 199762638264479361702078790902518964689 (0x9648E27A6914EC73A66337037F04E1D1)
Complete name : F:\Стартрек - Возмездие (Star Trek Into Darkness) 2013 Rus Dub.mkv
Format : Matroska
Format version : Version 4 / Version 2
File size : 1.77 GiB
Duration : 2h 12mn
Overall bit rate : 1 923 Kbps
Encoded date : UTC 2013-09-10 03:15:27
Writing application : mkvmerge v6.3.0 ('You can't stop me!') built on Jun 28 2013 20:09:41
Writing library : libebml v1.3.0 + libmatroska v1.4.0
Attachment : Yes
Video #2
ID : 2
Format : MPEG-4 Visual
Format profile : Advanced Simple@L5
Format settings, BVOP : Yes
Format settings, QPel : No
Format settings, GMC : No warppoints
Format settings, Matrix : Default (H.263)
Codec ID : V_MS/VFW/FOURCC / XVID
Codec ID/Hint : XviD
Duration : 2h 12mn
Bit rate : 1 436 Kbps
Width : 720 pixels
Height : 304 pixels
Display aspect ratio : 2.35:1
Frame rate mode : Constant
Frame rate : 23.976 fps
Color space : YUV
Chroma subsampling : 4:2:0
Bit depth : 8 bits
Scan type : Progressive
Compression mode : Lossy
Bits/(Pixel*Frame) : 0.274
Stream size : 1.33 GiB (75%)
Writing library : XviD 1.2.1 (UTC 2008-12-04)
Default : Yes
Forced : No
Audio #1
ID : 1
Format : AC-3
Format/Info : Audio Coding 3
Mode extension : CM (complete main)
Format settings, Endianness : Big
Codec ID : A_AC3
Duration : 2h 12mn
Bit rate mode : Constant
Bit rate : 448 Kbps
Channel(s) : 6 channels
Channel positions : Front: L C R, Side: L R, LFE
Sampling rate : 48.0 KHz
Bit depth : 16 bits
Compression mode : Lossy
Stream size : 423 MiB (23%)
Default : Yes
Forced : No

Скриншоты

Торрент обновлён до озвучки лицензии !!!


Последний раз редактировалось: Suxrob89 (2013-09-10 08:35), всего редактировалось 3 раз(а)

Создавать темы 03-Сен-2013 13:28

[Профиль]  [ЛС] 

Suxrob89 ®

Стаж: 7 лет 3 месяца

Сообщений: 933

Симпатии: 564

Торрент обновлён до озвучки чистого звука старый озвучка оказалось TS ном думаю не будите судить !!!

Создавать темы 03-Сен-2013 20:24

[Профиль]  [ЛС] 

Топик был перенесен из форума Фильмы за 2013 (новинки) в форум HD-AVC

Grock

Создавать темы 04-Сен-2013 21:48

 

caomacao

Стаж: 6 лет 6 месяцев

Сообщений: 40

Симпатии: 10

думал этот релиз из за размера скачается быстрей....не тут то было!((((

Создавать темы 05-Сен-2013 01:52

[Профиль]  [ЛС] 

Старый Дядька

Стаж: 5 лет 2 месяца

Сообщений: 566

Симпатии: 400

Лицензия ещё не вышла.
А это всего лишь.
Перевод: Дублированный (iTunes Russia)

Создавать темы 10-Сен-2013 09:33

[Профиль]  [ЛС] 

DarkUser

Стаж: 5 лет 10 месяцев

Сообщений: 3

Топик был перенесен из форума Фильмы за 2013 (новинки) в форум HD-AVC
А чо-ж не в Ultra-HD сразу?

Создавать темы 12-Сен-2013 22:58

[Профиль]  [ЛС] 

abuz85

Стаж: 8 лет 10 месяцев

Сообщений: 109

Симпатии: 80

Codec ID/Hint : XviD
Width : 720 pixels
Height : 304 pixels
ну это точно не AVC и не HD

Создавать темы 12-Сен-2013 23:13

[Профиль]  [ЛС] 

DrHouse

Стаж: 6 лет 11 месяцев

Сообщений: 15

мда действительно ошиблись перенося в этот раздел. Как я понял в ХД вообще нет этого фильма?

Создавать темы 02-Дек-2013 02:27

[Профиль]  [ЛС] 
Показать сообщения:    
Ответить на тему

Текущее время: 22-Ноя 02:30

Часовой пояс: UTC + 5



Вы не можете начинать темы
Вы не можете отвечать на сообщения
Вы не можете редактировать свои сообщения
Вы не можете удалять свои сообщения
Вы не можете голосовать в опросах
Вы не можете прикреплять файлы к сообщениям
Вы не можете скачивать файлы