Робокоп / Трилогия / Робот-полицейский: 1, 2 и 3 части / (Пол Верховен, Ирвин Кершнер, Фред Деккер / Paul Verhoeven, Irvin Kershner, Fred Dekker) [1987,1990,1993 г., фантастика, боевик, драма BDRip] [1080p] Dub + DVO + AVO + Original + Subs

Страницы :  1, 2, 3  След.

Ответить на тему
 

Robot-IX ®

Стаж: 5 лет 8 месяцев

Сообщений: 223

Симпатии: 9

--Робот-полицейский / Robocop / Theatrical Cut / Unreleased Sony Blu-ray«Part man. Part machine. All cop. The future of law enforcement.»- Страна: США
Студия: Orion Pictures Corporation
Жанр: фантастика, боевик
Год выпуска: 1987
Продолжительность: 1:42:47
Перевод 01: Профессиональный многоголосый закадровый (с Лицензии)
Перевод 02: Авторский одноголосый (Андрей Гаврилов)
Перевод 03: Любительский одноголосый (Алексей Попов)
Перевод 04: Авторский одноголосый (Василий Горчаков)
Перевод 05: Авторский одноголосый (Пётр Карцев)
Перевод 06: Профессиональный двухголосый закадровый (Киномания)
Перевод 07: Профессиональный многоголосый закадровый (Супербит)
Перевод 08: Авторский одноголосый (Сергей Визгунов)
Перевод 09: Авторский одноголосый (Юрий Живов)
Перевод 10: Авторский одноголосый (Григорий Либергал)
Перевод 11: Авторский одноголосый (К. Поздняков Ненормативная лексика)
Перевод 12: Авторский одноголосый (Вартан Дохалов)
Перевод 13: Профессиональный многоголосый закадровый (перевод СТСс TVrip'a)
Перевод 14: Профессиональный многоголосый закадровый (перевод НТВ с VHS)
Cубтитры: русские (лицензия), русские (К. Поздняков Ненормативная лексика), английские
Оригинальная аудиодорожка: английский
Режиссер: Пол Верховен / Paul Verhoeven
В ролях: Питер Уэллер, Нэнси Аллен, Дэн О’Херлихи, Ронни Кокс, Кертвуд Смит, Мигель Феррер, Роберт Дукуй, Рэй Уайз, Фелтон Перри, Пол МакКрейн, Джесси Д. Гойнс, Дел Замора, Кэлвин Джанг, Рик Либерман, Ли Де Бру, Марк Карлтон, Эдвард Эдвардс, Майкл Грегори, Фредди Хайс, Нил Саммерс
Описание: После гибели одного из лучших полицейских врачи-экспериментаторы создают из него неуязвимого киборга Робокопа, который в одиночку борется с бандой преступников. Однако прочная броня не спасает Робокопа от мучительных, обрывочных воспоминаний о прошлом: он постоянно видит кошмарные сны, в которых погибает от руки жестоких преступников. Теперь он ждет не только правосудия,… но и жаждет мести!-Доп. информация:
IMDB: 7.5/10 (111,240 votes)
КиноПоиск: 7.527/10 (32,592 votes)
Награды-Тип релиза: BDRip 1080p
Контейнер: MKV
Видео: High Profile 4.1 AVC / 1920x1040p / 16:9 / 23,976 fps / 12,5 Мбит/сек
Аудио 01: Русский, AC3 5.1, 48 kHz, 448 kbps | Профессиональный многоголосый закадровый (с Лицензии)
Аудио 02: Русский, DTS 5.1, 48 KHz, 24 bit, 1536 kbps | Авторский одноголосый (Андрей Гаврилов)
Аудио 03: Русский, DTS 5.1, 48 KHz, 24 bit, 1536 kbps | Любительский одноголосый (Алексей Попов)
Аудио 04: Русский, DTS 5.1, 48 KHz, 24 bit, 1536 kbps | Авторский одноголосый (Василий Горчаков)
Аудио 05: Русский, DTS 5.1, 48 KHz, 24 bit, 768 kbps | Авторский одноголосый (Пётр Карцев)
Аудио 06: Русский, AC3 5.1, 48 kHz, 448 kbps | Профессиональный двухголосый закадровый (Киномания)
Аудио 07: Русский, DTS 5.1, 48 KHz, 24 bit, 768 kbps | Профессиональный многоголосый закадровый (Супербит)
Аудио 08: Русский, AC3 5.1, 48 kHz, 448 kbps | Авторский одноголосый (Сергей Визгунов)
Аудио 09: Русский, DTS 5.1, 48 KHz, 24 bit, 768 kbps | Авторский одноголосый (Юрий Живов)
Аудио 10: Русский, AC3 5.1, 48 kHz, 448 kbps | Авторский одноголосый (Григорий Либергал)
Аудио 11: Русский, AC3 2.0, 48 kHz, 192 kbps | Авторский одноголосый (К. Поздняков)
Аудио 12: Русский, AC3 2.0, 48 kHz, 192 kbps | Авторский одноголосый (Вартан Дохалов)
Аудио 13: Русский, AC3 2.0, 48 kHz, 192 kbps | Профессиональный многоголосый закадровый (перевод СТСс TVrip'a)
Аудио 14: Русский, AC3 2.0, 48 kHz, 192 kbps | Профессиональный многоголосый закадровый (перевод НТВ с VHS)
Аудио 15: Английский, DTS 5.1, 48 KHz, 24 bit, 1536 kbps | оригинал
Формат субтитров: softsub (SRT)-

Рецензия

Сергей Кудрявцев, kinopoisk.ru. ...из книги «3500 кинорецензий»
Эта лента голландца Пауля Верхувена, который, перебравшись в США, приобрёл на рубеже 80—90-х годов особую популярность и в Америке, и во всём мире, развивает складывавшуюся в тот период традицию «философского фантастического боевика». Полицейский Алекс Мёрфи из Детройта ближайшего будущего был убит бандой жестоких преступников. Но затем его возродили в качестве суперробота, специально призванного для того, чтобы творить справедливость. Несколько вялая завязка картины впоследствии с лихвой компенсируется стремительно развивающимся действием с довольно натуралистическими подробностями (в полной режиссёрской версии, которая длиннее лишь на минуту, есть особенно резкие по манере кадры). Замечательны визуальные эффекты и оживление моделей роботов с помощью покадровой съёмки (над этим трудился Фил Типпет), а также грим признанного мастера Роба Боттина, колдовавшего над лицом полицейского Мёрфи — наполовину человеческим, наполовину искусственным. Однако специальная премия «Оскар» досталась только создателям звуковых эффектов.
И всё же «Робот-полицейский» по силе художественного воздействия (с коммерческими-то показателями было как раз нормально — не столь большой бюджет превзойдён в четыре с лишним раза, иначе не появились бы непременные продолжения) проигрывает фильмам «Блейд-раннер» и «Терминатор». Как ни странно, он воспринимается будто реальная сегодняшняя история с дополнительными аттракционами фантастического плана для развлечения публики. Почему-то не чувствуешь той ауры пророчества и предостережения, что непременно витает над лучшими работами данного жанра, даже если они вообще обходятся без применения супертехники.

Интересные факты

  • Костюм главного героя был настолько тяжелым и теплым, что исполнитель этой роли Питер Уэллер терял по три фунта в день. В итоге даже пришлось установить в костюме кондиционер.
  • Режиссер фильма Пол Верховен снялся в эпизодической роли-камео в сцене ареста Леона.
  • В рекламном ролике картины была использована музыка из «Терминатора» (1984).
  • Идея «Робота-полицейского» пришла в голову сценаристу Эдварду Ньюмейру, когда он проходил мимо съемочной площадки «Бегущего по лезвию» (1982).
  • На главную роль первоначально рассматривалась кандидатура Рутгера Хауэра, ранее много снимавшегося у Пола Верховена.
    Одно время предполагалось, что главную роль исполнит Майкл Айронсайд, однако он не подошел по комплекции.
  • Создателю костюма Робу Боттину и его команде потребовалось 11 часов, чтобы подогнать его под Питера Уэллера. Однако, одевшись, Уэллер обнаружил, что все заранее разработанные для его роли движения в этом облачении делать нельзя. Съемки пришлось остановить, чтобы Уэллер и его преподаватель по пластике смогли придумать новые движения.
  • Первым кандидатом на постановку был Джонатан Каплан, но он предпочел снять фантастическую комедию с Мэттью Бродериком «Проект Икс» (1987).
  • В конце фильма Робот-полицейский идет по воде. По словам Верховена, он таким образом хотел представить футуристический образ Христа.
  • На роль Робокопа рассматривалась даже кандидатура Арнольда Шварценеггера, но посчитали, что в костюме он будет выглядеть слишком громоздким и тучным.
  • Две сцены были запланированы по сценарию, но так и не сняты. Первая — сцена посещения Робокопом своей могилы. Вторая — длинная автомобильная погоня, которая приводит персонажей на сталелитейный завод, где Робокоп снимает шлем.
  • Вход в здание корпорации «OCP» — это на самом деле вход в здание муниципалитета в Далласе (англ. Dallas City Hall).
  • «Компьютер» в котором Робокоп ищет данные преступников — это на самом деле телефонный коммутатор компании «Northern Telecom».
  • Робота «ED-209» озвучивал продюсер Джон Дэвисон.
  • В фильме убито ровно 30 человек.
  • Полицейские машины в фильме — это переделанные Форды «Таурусы».
  • В круглосуточном магазине человек выбирает комикс «Железный человек» («Iron Man»).
  • Режиссёрская версия фильма имеет хронометраж 103 минуты.
  • Основа костюма робота-полицейского взята из японского сериала «Space Sheriff Gavan» 1982 года.
  • Автоматический пистолет главного героя - модифицированная Beretta M93R с усилителем.

MediaInfo

General
Unique ID                                : 250016531712099753911054219589365072886 (0xBC176EB86D0E24B99EF9592FA87503F6)
Complete name                            : D:\Torent\Robocop.1.1987.+Robocop.2.1990.+.Robocop.3.1993.BDRip.1080p\Robocop.1.1987.[Sony].BDRip.1080p.DTS.Rus.Eng.x264-CHD.mkv
Format                                   : Matroska
Format version                           : Version 4 / Version 2
File size                                : 17.0 GiB
Duration                                 : 1h 42mn
Overall bit rate                         : 23.7 Mbps
Movie name                               : source:(Robocop.1987.Unreleased.Sony.Bluray.REMUX-FraMeSToR),encoder:(Crusader3000)
Encoded date                             : UTC 2013-09-03 18:37:25
Writing application                      : mkvmerge v6.0.0 ('Coming Up For Air') built on Jan 20 2013 09:52:00
Writing library                          : libebml v1.3.0 + libmatroska v1.4.0
Video
ID                                       : 1
Format                                   : AVC
Format/Info                              : Advanced Video Codec
Format profile                           : [email protected]
Format settings, CABAC                   : Yes
Format settings, ReFrames                : 4 frames
Codec ID                                 : V_MPEG4/ISO/AVC
Duration                                 : 1h 42mn
Bit rate                                 : 12.8 Mbps
Width                                    : 1 920 pixels
Height                                   : 1 040 pixels
Display aspect ratio                     : 16:9
Frame rate                               : 23.976 fps
Color space                              : YUV
Chroma subsampling                       : 4:2:0
Bit depth                                : 8 bits
Scan type                                : Progressive
Bits/(Pixel*Frame)                       : 0.268
Stream size                              : 8.86 GiB (52%)
Writing library                          : x264 core 114 r1900 60ef1f8
Encoding settings                        : cabac=1 / ref=4 / deblock=1:-3:-3 / analyse=0x3:0x113 / me=umh / subme=10 / psy=1 / psy_rd=0.70:0.30 / mixed_ref=1 / me_range=32 / chroma_me=1 / trellis=2 / 8x8dct=1 / cqm=0 / deadzone=21,11 / fast_pskip=0 / chroma_qp_offset=-4 / threads=6 / sliced_threads=0 / nr=0 / decimate=0 / interlaced=0 / constrained_intra=0 / bframes=12 / b_pyramid=2 / b_adapt=2 / b_bias=0 / direct=3 / weightb=1 / open_gop=0 / weightp=2 / keyint=250 / keyint_min=23 / scenecut=40 / intra_refresh=0 / rc_lookahead=60 / rc=2pass / mbtree=0 / bitrate=12830 / ratetol=1.0 / qcomp=0.60 / qpmin=0 / qpmax=69 / qpstep=4 / cplxblur=20.0 / qblur=0.5 / vbv_maxrate=50000 / vbv_bufsize=62500 / nal_hrd=none / ip_ratio=1.40 / pb_ratio=1.30 / aq=1:0.50
Language                                 : English
Default                                  : Yes
Forced                                   : No
Matrix coefficients                      : BT.709-5, BT.1361, IEC 61966-2-4 709, SMPTE RP177
Audio #1
ID                                       : 2
Format                                   : AC-3
Format/Info                              : Audio Coding 3
Mode extension                           : CM (complete main)
Codec ID                                 : A_AC3
Duration                                 : 1h 42mn
Bit rate mode                            : Constant
Bit rate                                 : 448 Kbps
Channel(s)                               : 6 channels
Channel positions                        : Front: L C R, Side: L R, LFE
Sampling rate                            : 48.0 KHz
Bit depth                                : 16 bits
Compression mode                         : Lossy
Stream size                              : 329 MiB (2%)
Title                                    : #5 - Многоголоска с Лицензии, AC3 5.1 448kbps
Language                                 : Russian
Default                                  : Yes
Forced                                   : No
Audio #2
ID                                       : 3
Format                                   : DTS
Format/Info                              : Digital Theater Systems
Codec ID                                 : A_DTS
Duration                                 : 1h 42mn
Bit rate mode                            : Constant
Bit rate                                 : 1 510 Kbps
Channel(s)                               : 6 channels
Channel positions                        : Front: L C R, Side: L R, LFE
Sampling rate                            : 48.0 KHz
Bit depth                                : 24 bits
Compression mode                         : Lossy
Delay relative to video                  : 11ms
Stream size                              : 1.08 GiB (6%)
Title                                    : #1 - Андрей Гаврилов, DTS 5.1 1536kbps
Language                                 : Russian
Default                                  : No
Forced                                   : No
Audio #3
ID                                       : 4
Format                                   : DTS
Format/Info                              : Digital Theater Systems
Codec ID                                 : A_DTS
Duration                                 : 1h 42mn
Bit rate mode                            : Constant
Bit rate                                 : 1 510 Kbps
Channel(s)                               : 6 channels
Channel positions                        : Front: L C R, Side: L R, LFE
Sampling rate                            : 48.0 KHz
Bit depth                                : 24 bits
Compression mode                         : Lossy
Delay relative to video                  : 11ms
Stream size                              : 1.08 GiB (6%)
Title                                    : #2 - Попов Алексей, DTS 5.1 1536kbps
Language                                 : Russian
Default                                  : No
Forced                                   : No
Audio #4
ID                                       : 5
Format                                   : DTS
Format/Info                              : Digital Theater Systems
Codec ID                                 : A_DTS
Duration                                 : 1h 42mn
Bit rate mode                            : Constant
Bit rate                                 : 1 510 Kbps
Channel(s)                               : 6 channels
Channel positions                        : Front: L C R, Side: L R, LFE
Sampling rate                            : 48.0 KHz
Bit depth                                : 24 bits
Compression mode                         : Lossy
Delay relative to video                  : 11ms
Stream size                              : 1.08 GiB (6%)
Title                                    : #3 - Василий Горчаков, DTS 5.1 1536kbps
Language                                 : Russian
Default                                  : No
Forced                                   : No
Audio #5
ID                                       : 6
Format                                   : DTS
Format/Info                              : Digital Theater Systems
Codec ID                                 : A_DTS
Duration                                 : 1h 42mn
Bit rate mode                            : Constant
Bit rate                                 : 755 Kbps
Channel(s)                               : 6 channels
Channel positions                        : Front: L C R, Side: L R, LFE
Sampling rate                            : 48.0 KHz
Bit depth                                : 24 bits
Compression mode                         : Lossy
Delay relative to video                  : 11ms
Stream size                              : 555 MiB (3%)
Title                                    : #4 - Пётр Карцев, DTS 5.1 756kbps
Language                                 : Russian
Default                                  : No
Forced                                   : No
Audio #6
ID                                       : 7
Format                                   : AC-3
Format/Info                              : Audio Coding 3
Mode extension                           : CM (complete main)
Codec ID                                 : A_AC3
Duration                                 : 1h 42mn
Bit rate mode                            : Constant
Bit rate                                 : 448 Kbps
Channel(s)                               : 6 channels
Channel positions                        : Front: L C R, Side: L R, LFE
Sampling rate                            : 48.0 KHz
Bit depth                                : 16 bits
Compression mode                         : Lossy
Stream size                              : 329 MiB (2%)
Title                                    : #6 - Двухголоска с Киномании, AC3 5.1 448kbps
Language                                 : Russian
Default                                  : No
Forced                                   : No
Audio #7
ID                                       : 8
Format                                   : DTS
Format/Info                              : Digital Theater Systems
Codec ID                                 : A_DTS
Duration                                 : 1h 42mn
Bit rate mode                            : Constant
Bit rate                                 : 755 Kbps
Channel(s)                               : 6 channels
Channel positions                        : Front: L C R, Side: L R, LFE
Sampling rate                            : 48.0 KHz
Bit depth                                : 24 bits
Compression mode                         : Lossy
Delay relative to video                  : 11ms
Stream size                              : 555 MiB (3%)
Title                                    : #7 - Многоголоска Superbit, DTS 5.1 756kbps
Language                                 : Russian
Default                                  : No
Forced                                   : No
Audio #8
ID                                       : 9
Format                                   : AC-3
Format/Info                              : Audio Coding 3
Mode extension                           : CM (complete main)
Codec ID                                 : A_AC3
Duration                                 : 1h 42mn
Bit rate mode                            : Constant
Bit rate                                 : 448 Kbps
Channel(s)                               : 6 channels
Channel positions                        : Front: L C R, Side: L R, LFE
Sampling rate                            : 48.0 KHz
Bit depth                                : 16 bits
Compression mode                         : Lossy
Stream size                              : 329 MiB (2%)
Title                                    : #8 - Сергей Визгунов, AC3 5.1 448kbps
Language                                 : Russian
Default                                  : No
Forced                                   : No
Audio #9
ID                                       : 10
Format                                   : DTS
Format/Info                              : Digital Theater Systems
Codec ID                                 : A_DTS
Duration                                 : 1h 42mn
Bit rate mode                            : Constant
Bit rate                                 : 755 Kbps
Channel(s)                               : 6 channels
Channel positions                        : Front: L C R, Side: L R, LFE
Sampling rate                            : 48.0 KHz
Bit depth                                : 24 bits
Compression mode                         : Lossy
Delay relative to video                  : 11ms
Stream size                              : 555 MiB (3%)
Title                                    : #9 - Юрий Живов, DTS 5.1 756kbps
Language                                 : Russian
Default                                  : No
Forced                                   : No
Audio #10
ID                                       : 11
Format                                   : AC-3
Format/Info                              : Audio Coding 3
Mode extension                           : CM (complete main)
Codec ID                                 : A_AC3
Duration                                 : 1h 42mn
Bit rate mode                            : Constant
Bit rate                                 : 448 Kbps
Channel(s)                               : 6 channels
Channel positions                        : Front: L C R, Side: L R, LFE
Sampling rate                            : 48.0 KHz
Bit depth                                : 16 bits
Compression mode                         : Lossy
Stream size                              : 329 MiB (2%)
Title                                    : #10 - Григорий Либергал, AC3 5.1 448kbps
Language                                 : Russian
Default                                  : No
Forced                                   : No
Audio #11
ID                                       : 12
Format                                   : AC-3
Format/Info                              : Audio Coding 3
Mode extension                           : CM (complete main)
Codec ID                                 : A_AC3
Duration                                 : 1h 42mn
Bit rate mode                            : Constant
Bit rate                                 : 192 Kbps
Channel(s)                               : 2 channels
Channel positions                        : Front: L R
Sampling rate                            : 48.0 KHz
Bit depth                                : 16 bits
Compression mode                         : Lossy
Stream size                              : 141 MiB (1%)
Title                                    : #11 - К. Поздняков, AC3 2.0 192kbps
Language                                 : Russian
Default                                  : No
Forced                                   : No
Audio #12
ID                                       : 13
Format                                   : AC-3
Format/Info                              : Audio Coding 3
Mode extension                           : CM (complete main)
Codec ID                                 : A_AC3
Duration                                 : 1h 42mn
Bit rate mode                            : Constant
Bit rate                                 : 192 Kbps
Channel(s)                               : 2 channels
Channel positions                        : Front: L R
Sampling rate                            : 48.0 KHz
Bit depth                                : 16 bits
Compression mode                         : Lossy
Stream size                              : 141 MiB (1%)
Title                                    : #12 - Вартан Дохалов, AC3 2.0 192kbps
Language                                 : Russian
Default                                  : No
Forced                                   : No
Audio #13
ID                                       : 14
Format                                   : AC-3
Format/Info                              : Audio Coding 3
Mode extension                           : CM (complete main)
Codec ID                                 : A_AC3
Duration                                 : 1h 42mn
Bit rate mode                            : Constant
Bit rate                                 : 192 Kbps
Channel(s)                               : 2 channels
Channel positions                        : Front: L R
Sampling rate                            : 48.0 KHz
Bit depth                                : 16 bits
Compression mode                         : Lossy
Stream size                              : 141 MiB (1%)
Title                                    : #13 - перевод СТС, AC3 2.0 192kbps
Language                                 : Russian
Default                                  : No
Forced                                   : No
Audio #14
ID                                       : 15
Format                                   : AC-3
Format/Info                              : Audio Coding 3
Mode extension                           : CM (complete main)
Codec ID                                 : A_AC3
Duration                                 : 1h 42mn
Bit rate mode                            : Constant
Bit rate                                 : 192 Kbps
Channel(s)                               : 2 channels
Channel positions                        : Front: L R
Sampling rate                            : 48.0 KHz
Bit depth                                : 16 bits
Compression mode                         : Lossy
Stream size                              : 141 MiB (1%)
Title                                    : #14 - перевод НТВ, AC3 2.0 192kbps
Language                                 : Russian
Default                                  : No
Forced                                   : No
Audio #15
ID                                       : 16
Format                                   : DTS
Format/Info                              : Digital Theater Systems
Codec ID                                 : A_DTS
Duration                                 : 1h 42mn
Bit rate mode                            : Constant
Bit rate                                 : 1 510 Kbps
Channel(s)                               : 6 channels
Channel positions                        : Front: L C R, Side: L R, LFE
Sampling rate                            : 48.0 KHz
Bit depth                                : 24 bits
Compression mode                         : Lossy
Delay relative to video                  : 11ms
Stream size                              : 1.08 GiB (6%)
Title                                    : English DTS 5.1 1536kbps
Language                                 : English
Default                                  : No
Forced                                   : No
Text #1
ID                                       : 17
Format                                   : UTF-8
Codec ID                                 : S_TEXT/UTF8
Codec ID/Info                            : UTF-8 Plain Text
Title                                    : Russian | Перевод с Лицензии
Language                                 : Russian
Default                                  : No
Forced                                   : No
Text #2
ID                                       : 18
Format                                   : UTF-8
Codec ID                                 : S_TEXT/UTF8
Codec ID/Info                            : UTF-8 Plain Text
Title                                    : Russian | Перевод К. Позднякова (ненормативная лексика)
Language                                 : Russian
Default                                  : No
Forced                                   : No
Text #3
ID                                       : 19
Format                                   : UTF-8
Codec ID                                 : S_TEXT/UTF8
Codec ID/Info                            : UTF-8 Plain Text
Title                                    : English
Language                                 : English
Default                                  : No
Forced                                   : No

Скриншоты





---Робот-полицейский 2 / RoboCop 2«Even in the future of law enforcement there is room for improvement.»- Страна: США
Студия: Orion Pictures Corporation, Tobor Productions
Жанр: фантастика, боевик, драма
Год выпуска: 1990
Продолжительность: 01:56:40
Перевод №1: Полный Дубляж
Перевод №2: Авторский одноголосый (Андрей Гаврилов*)
Перевод №3: Авторский одноголосый (Пётр Карцев**)
Перевод №4: Профессиональный многоголосый закадровый (Киномания/Супербит)
Перевод №5: Профессиональный двухголосый закадровый (НТВ)
Перевод №6: Авторский одноголосый (К. Поздняков Ненормативная лексика)
Перевод №7: Профессиональный многоголосый закадровый перевод СТС (с TVrip'a)
Cубтитры: русские (2 вида): (К. Позднякова Ненормативная лексика), и с Blu-Ray, Английские
Оригинальная аудиодорожка: английский
Режиссер: Ирвин Кершнер / Irvin Kershner
В ролях: Питер Уэллер (Peter Weller), Нэнси Аллен (Nancy Allen), Том Нунан (Tom Noonan), Дэниэл О`Херлихи (Daniel O'Herlihy), Белинда Бауэр (Belinda Bauer), Гэбриел Дэймон (Gabriel Damon), Уиллард Э. Пью (Willard E. Pugh), Фелтон Перри (Felton Perry), Роберт ДаКуи (Robert DoQui), Фрэнк Миллер (Frank Miller)
Описание: Наркодельцы стремятся захватить власть в городе, подчинить органы управления и поработить жителей. Робот-полицейский — единственная надежда в борьбе с распоясавшимися негодяями.
Но бандиты, зная о его существовании, создают свою машину — киборга, при помощи которого они надеются избавиться от кибернетического блюстителя порядка, и установить тотальный контроль…-Доп. информация:
IMDB: 5.6/10 (38,939 votes)
КиноПоиск: 6.889/10 (9,581 votes)
Награды-Тип релиза: BDRip 1080p (CHD)
Контейнер: MKV
Видео: High Profile 4.1 AVC at 1920 x 1040 (1.846) at 23.976 fps, 13,8 Мбит/сек
Аудио#1: Russian: 48 kHz, DTS 5.1, 3/2 (L,C,R,l,r) + LFE ch, ~768.00 kbps avg |Дубляж, с Blu-Ray CEE |
Аудио#2: Russian: 48 kHz, DTS 5.1, 3/2 (L,C,R,l,r) + LFE ch, ~1536.00 kbps avg |Одноголосый закадровый, А.Гаврилов|
Аудио#3: Russian: 48 kHz, AC3, 3/2 (L,C,R,l,r) + LFE ch, ~448.00 kbps avg |Одноголосый закадровый, Пётр Карцев|
Аудио#4: Russian: 48 kHz, DTS 5.1, 3/2 (L,C,R,l,r) + LFE ch, ~756.00 kbps avg |Многоголосый закадровый, Супербит/Киномания|
Аудио#5: Russian: 48 kHz, AC3, 3/2 (L,C,R,l,r) + LFE ch, ~448.00 kbps avg |Двухголосый закадровый, НТВ |
Аудио#6: Russian: 48 kHz, AC3, 2ch (L,R), ~192.00 kbps avg kbps avg |Одноголосый закадровый, К.Поздняков|
Аудио#7: Russian: 48 kHz, AC3, 2ch (L,R), ~192.00 kbps avg kbps avg |Многоголосый закадровый, СТС (с TVRip'а)|
Аудио#8: English: 48 kHz, DTS 5.1, 3/2 (L,C,R,l,r) + LFE ch, ~1509.00 kbps avg
Формат субтитров: softsub (SRT)-

Скрин/Сравнение дорог звука

Сравнение ДТС (сверху) и АС3 дорог Киномании/Супербита.
* Дорожка №2 получена наложением чистого голоса на центр декодированного DTS

MediaInfo

General
Unique ID                                : 240085552937618006323638334424293275003 (0xB49ECBA9EF073724BCB5D8161CD3757B)
Complete name                            : D:\Torent\Robocop.1.1987.+Robocop.2.1990.+.Robocop.3.1993.BDRip.1080p\Robocop.2.1990.BDRip.1080p.DTS.Rus.Eng.x264-CHD.mkv
Format                                   : Matroska
Format version                           : Version 4 / Version 2
File size                                : 16.0 GiB
Duration                                 : 1h 56mn
Overall bit rate                         : 19.7 Mbps
Movie name                               : ТыНьО специально для -=RUTRACKER.RU=-
Encoded date                             : UTC 2013-09-03 10:08:10
Writing application                      : mkvmerge v6.0.0 ('Coming Up For Air') built on Jan 20 2013 09:52:00
Writing library                          : libebml v1.3.0 + libmatroska v1.4.0
Video
ID                                       : 1
Format                                   : AVC
Format/Info                              : Advanced Video Codec
Format profile                           : [email protected]
Format settings, CABAC                   : Yes
Format settings, ReFrames                : 4 frames
Codec ID                                 : V_MPEG4/ISO/AVC
Duration                                 : 1h 56mn
Bit rate                                 : 13.8 Mbps
Width                                    : 1 920 pixels
Height                                   : 1 040 pixels
Display aspect ratio                     : 16:9
Frame rate                               : 23.976 fps
Color space                              : YUV
Chroma subsampling                       : 4:2:0
Bit depth                                : 8 bits
Scan type                                : Progressive
Bits/(Pixel*Frame)                       : 0.289
Stream size                              : 11.0 GiB (68%)
Title                                    : Robocop.2.1990.BluRay.1080p.DTS.x264-CHD
Writing library                          : x264 core 104 r1703 cd21d05
Encoding settings                        : cabac=1 / ref=4 / deblock=1:-3:-3 / analyse=0x3:0x113 / me=umh / subme=9 / psy=1 / psy_rd=1.05:0.10 / mixed_ref=1 / me_range=32 / chroma_me=1 / trellis=2 / 8x8dct=1 / cqm=0 / deadzone=21,11 / fast_pskip=0 / chroma_qp_offset=-2 / threads=12 / sliced_threads=0 / nr=0 / decimate=1 / interlaced=0 / constrained_intra=0 / bframes=5 / b_pyramid=2 / b_adapt=2 / b_bias=0 / direct=3 / weightb=1 / open_gop=0 / weightp=2 / keyint=250 / keyint_min=23 / scenecut=40 / intra_refresh=0 / rc_lookahead=60 / rc=2pass / mbtree=1 / bitrate=13842 / ratetol=2.0 / qcomp=0.70 / qpmin=10 / qpmax=51 / qpstep=4 / cplxblur=20.0 / qblur=0.5 / vbv_maxrate=50000 / vbv_bufsize=50000 / ip_ratio=1.40 / aq=1:1.00 / nal_hrd=none
Language                                 : English
Default                                  : Yes
Forced                                   : No
Audio #1
ID                                       : 2
Format                                   : DTS
Format/Info                              : Digital Theater Systems
Codec ID                                 : A_DTS
Duration                                 : 1h 56mn
Bit rate mode                            : Constant
Bit rate                                 : 755 Kbps
Channel(s)                               : 6 channels
Channel positions                        : Front: L C R, Side: L R, LFE
Sampling rate                            : 48.0 KHz
Bit depth                                : 24 bits
Compression mode                         : Lossy
Stream size                              : 630 MiB (4%)
Title                                    : #1 Дубляж с Blu-ray, DTS 5.1 756kbps
Language                                 : Russian
Default                                  : Yes
Forced                                   : No
Audio #2
ID                                       : 3
Format                                   : DTS
Format/Info                              : Digital Theater Systems
Codec ID                                 : A_DTS
Duration                                 : 1h 56mn
Bit rate mode                            : Constant
Bit rate                                 : 1 510 Kbps
Channel(s)                               : 6 channels
Channel positions                        : Front: L C R, Side: L R, LFE
Sampling rate                            : 48.0 KHz
Bit depth                                : 24 bits
Compression mode                         : Lossy
Stream size                              : 1.23 GiB (8%)
Title                                    : #2 Гаврилов, DTS 5.1 1510kbps
Language                                 : Russian
Default                                  : No
Forced                                   : No
Audio #3
ID                                       : 4
Format                                   : AC-3
Format/Info                              : Audio Coding 3
Mode extension                           : CM (complete main)
Codec ID                                 : A_AC3
Duration                                 : 1h 56mn
Bit rate mode                            : Constant
Bit rate                                 : 448 Kbps
Channel(s)                               : 6 channels
Channel positions                        : Front: L C R, Side: L R, LFE
Sampling rate                            : 48.0 KHz
Bit depth                                : 16 bits
Compression mode                         : Lossy
Stream size                              : 374 MiB (2%)
Title                                    : #3 Карцев, АС3 5.1 448kbps
Language                                 : Russian
Default                                  : No
Forced                                   : No
Audio #4
ID                                       : 5
Format                                   : DTS
Format/Info                              : Digital Theater Systems
Codec ID                                 : A_DTS
Duration                                 : 1h 56mn
Bit rate mode                            : Constant
Bit rate                                 : 755 Kbps
Channel(s)                               : 6 channels
Channel positions                        : Front: L C R, Side: L R, LFE
Sampling rate                            : 48.0 KHz
Bit depth                                : 24 bits
Compression mode                         : Lossy
Stream size                              : 630 MiB (4%)
Title                                    : #4 Супербит/Киномания, DTS 5.1 756kbps
Language                                 : Russian
Default                                  : No
Forced                                   : No
Audio #5
ID                                       : 6
Format                                   : AC-3
Format/Info                              : Audio Coding 3
Mode extension                           : CM (complete main)
Codec ID                                 : A_AC3
Duration                                 : 1h 56mn
Bit rate mode                            : Constant
Bit rate                                 : 448 Kbps
Channel(s)                               : 6 channels
Channel positions                        : Front: L C R, Side: L R, LFE
Sampling rate                            : 48.0 KHz
Bit depth                                : 16 bits
Compression mode                         : Lossy
Stream size                              : 374 MiB (2%)
Title                                    : #5 НТВ, АС3 5.1 448kbps
Language                                 : Russian
Default                                  : No
Forced                                   : No
Audio #6
ID                                       : 7
Format                                   : AC-3
Format/Info                              : Audio Coding 3
Mode extension                           : CM (complete main)
Codec ID                                 : A_AC3
Duration                                 : 1h 56mn
Bit rate mode                            : Constant
Bit rate                                 : 192 Kbps
Channel(s)                               : 2 channels
Channel positions                        : Front: L R
Sampling rate                            : 48.0 KHz
Bit depth                                : 16 bits
Compression mode                         : Lossy
Stream size                              : 160 MiB (1%)
Title                                    : #6 К. Поздняков, АС3 2.0 192kbps
Language                                 : Russian
Default                                  : No
Forced                                   : No
Audio #7
ID                                       : 8
Format                                   : AC-3
Format/Info                              : Audio Coding 3
Mode extension                           : CM (complete main)
Codec ID                                 : A_AC3
Duration                                 : 1h 56mn
Bit rate mode                            : Constant
Bit rate                                 : 192 Kbps
Channel(s)                               : 2 channels
Channel positions                        : Front: L R
Sampling rate                            : 48.0 KHz
Bit depth                                : 16 bits
Compression mode                         : Lossy
Stream size                              : 160 MiB (1%)
Title                                    : #7 СТС, АС3 2.0 192kbps
Language                                 : Russian
Default                                  : No
Forced                                   : No
Audio #8
ID                                       : 9
Format                                   : DTS
Format/Info                              : Digital Theater Systems
Codec ID                                 : A_DTS
Duration                                 : 1h 56mn
Bit rate mode                            : Constant
Bit rate                                 : 1 510 Kbps
Channel(s)                               : 6 channels
Channel positions                        : Front: L C R, Side: L R, LFE
Sampling rate                            : 48.0 KHz
Bit depth                                : 24 bits
Compression mode                         : Lossy
Stream size                              : 1.23 GiB (8%)
Title                                    : DTS-HDMA core 5.1CH 1509kbps
Language                                 : English
Default                                  : No
Forced                                   : No
Text #1
ID                                       : 10
Format                                   : UTF-8
Codec ID                                 : S_TEXT/UTF8
Codec ID/Info                            : UTF-8 Plain Text
Title                                    : Субтитры с Blu-ray
Language                                 : Russian
Default                                  : No
Forced                                   : No
Text #2
ID                                       : 11
Format                                   : UTF-8
Codec ID                                 : S_TEXT/UTF8
Codec ID/Info                            : UTF-8 Plain Text
Title                                    : Субтитры К. Позднякова
Language                                 : Russian
Default                                  : No
Forced                                   : No
Text #3
ID                                       : 12
Format                                   : UTF-8
Codec ID                                 : S_TEXT/UTF8
Codec ID/Info                            : UTF-8 Plain Text
Language                                 : English
Default                                  : No
Forced                                   : No

Скриншоты





---Робот-полицейский 3 / RoboCop 3«Back on line, Back on duty.»- Страна: США
Студия: Orion Pictures Corporation
Жанр: фантастика, боевик, драма
Год выпуска: 1993
Продолжительность: 01:44:50
Перевод №1: Полный Дубляж
Перевод №2: Авторский одноголосый (Юрий Живов)*
Перевод №3: Профессиональный многоголосый закадровый (Киномания/Супербит)
Перевод №4: Профессиональный двухголосый закадровый (НТВ)
Перевод №5: Профессиональный многоголосый закадровый (перевод СТС (с TVrip'a)
Cубтитры: русские (2 вида): BOBAHC'а (с subtitry.ru), и с Blu-Ray, Английские
Оригинальная аудиодорожка: английский
Режиссер: Фред Деккер / Fred Dekker
В ролях: Роберт Джон Бёрк (Robert John Burke), Марио Мачадо (Mario Machado), Реми Райан (Remy Ryan Hernandez), Джоди Лонг (Jodi Long), Джон Пози (John Posey), Рип Торн (Rip Torn), Мако (Mako), Джон Кастл (John Castle), S.D. Nemeth, Эдит Айви (Edith Ivey)
Описание: Могущественная корпорация, создавшая знаменитого Робота-полицейского, разрабатывает грандиозный проект по переустройству Детройта. Но его осуществлению препятствуют жители бедных кварталов, для которых не нашлось места в идеальном городе будущего.
Бесстрашный Робокоп оказывается между двух враждующих лагерей. Как собственность корпорации, он обязан подчиниться несправедливому приказу. Но как человек, Мёрфи должен встать на защиту повстанцев. Разрываясь между жестоким долгом и голосом сердца, Робот-полицейский попадает в самый эпицентр противостояния. Настало время сделать решающий выбор…-Доп. информация:
IMDB: 3.7/10 (22,250 votes)
КиноПоиск: 6.023/10 (6,377 votes)
Награды-Тип релиза: BDRip 1080p (CHD)
Контейнер: MKV
Видео: Profile 4.1 AVC at 1920 x 1038 (1.850) at 23.976 fps, 12,1 Мбит/сек
Аудио#1: Russian: 48 kHz, DTS 5.1, 3/2 (L,C,R,l,r) + LFE ch, ~768.00 kbps avg |Дубляж, Blu-Ray CEE |
Аудио#2: Russian: 48 kHz, DTS 5.1, 3/2 (L,C,R,l,r) + LFE ch, ~1536.00 kbps avg |Одноголосый закадровый, Ю. Живов|
Аудио#3: Russian: 48 kHz, DTS 5.1, 3/2 (L,C,R,l,r) + LFE ch, ~768.00 kbps avg |Многоголосый закадровый, Супербит/Киномания|
Аудио#4: Russian: 48 kHz, AC3, 3/2 (L,C,R,l,r) + LFE ch, ~448.00 kbps avg |Двухголосый закадровый, НТВ |
Аудио#5: Russian: 48 kHz, AC3, 2ch (L,R), ~192.00 kbps avg kbps avg |Многоголосый закадровый, СТС (с TVRip'а)|
Аудио#6: English: 48 kHz, DTS 5.1, 3/2 (L,C,R,l,r) + LFE ch, ~1509.00 kbps avg
Формат субтитров: softsub (SRT)-

Скрин/Сравнение дорог звука

Сравнение ДТС (сверху) и АС3 дорог Киномании/Супербита.
* Дорожка №2 получена наложением чистого голоса на центр декодированного DTS

MediaInfo

General
Unique ID                                : 211662489673983300583812191536195252504 (0x9F3CB67349F066CDB94331FC9BBB3118)
Complete name                            : D:\Torent\Robocop.1.1987.+Robocop.2.1990.+.Robocop.3.1993.BDRip.1080p\Robocop.3.1993.BDRip.1080p.DTS.Rus.Eng.x264-CHD.mkv
Format                                   : Matroska
Format version                           : Version 4 / Version 2
File size                                : 12.7 GiB
Duration                                 : 1h 44mn
Overall bit rate                         : 17.3 Mbps
Movie name                               : ТыНьО специально для -=RUTRACKER.RU=-
Encoded date                             : UTC 2013-09-03 10:24:47
Writing application                      : mkvmerge v6.0.0 ('Coming Up For Air') built on Jan 20 2013 09:52:00
Writing library                          : libebml v1.3.0 + libmatroska v1.4.0
Video
ID                                       : 1
Format                                   : AVC
Format/Info                              : Advanced Video Codec
Format profile                           : [email protected]
Format settings, CABAC                   : Yes
Format settings, ReFrames                : 4 frames
Codec ID                                 : V_MPEG4/ISO/AVC
Duration                                 : 1h 44mn
Bit rate                                 : 12.1 Mbps
Width                                    : 1 920 pixels
Height                                   : 1 038 pixels
Display aspect ratio                     : 1.850
Frame rate                               : 23.976 fps
Color space                              : YUV
Chroma subsampling                       : 4:2:0
Bit depth                                : 8 bits
Scan type                                : Progressive
Bits/(Pixel*Frame)                       : 0.254
Stream size                              : 8.65 GiB (68%)
Title                                    : Robocop.3.1993
Writing library                          : x264 core 102 r1666 d058f37
Encoding settings                        : cabac=1 / ref=4 / deblock=1:-3:-3 / analyse=0x3:0x113 / me=umh / subme=9 / psy=1 / psy_rd=1.10:0.15 / mixed_ref=1 / me_range=32 / chroma_me=1 / trellis=2 / 8x8dct=1 / cqm=2 / deadzone=21,11 / fast_pskip=0 / chroma_qp_offset=-2 / threads=12 / sliced_threads=0 / nr=0 / decimate=1 / interlaced=0 / constrained_intra=0 / bframes=5 / b_pyramid=2 / b_adapt=2 / b_bias=0 / direct=3 / weightb=1 / open_gop=0 / weightp=2 / keyint=250 / keyint_min=25 / scenecut=40 / intra_refresh=0 / rc_lookahead=50 / rc=2pass / mbtree=1 / bitrate=12145 / ratetol=2.0 / qcomp=0.70 / qpmin=10 / qpmax=51 / qpstep=4 / cplxblur=20.0 / qblur=0.5 / vbv_maxrate=50000 / vbv_bufsize=50000 / ip_ratio=1.40 / aq=1:0.90 / nal_hrd=none
Language                                 : English
Default                                  : Yes
Forced                                   : Yes
Audio #1
ID                                       : 2
Format                                   : DTS
Format/Info                              : Digital Theater Systems
Codec ID                                 : A_DTS
Duration                                 : 1h 44mn
Bit rate mode                            : Constant
Bit rate                                 : 755 Kbps
Channel(s)                               : 6 channels
Channel positions                        : Front: L C R, Side: L R, LFE
Sampling rate                            : 48.0 KHz
Bit depth                                : 24 bits
Compression mode                         : Lossy
Stream size                              : 566 MiB (4%)
Title                                    : #1 Дубляж с Blu-ray, DTS 5.1 756kbps
Language                                 : Russian
Default                                  : Yes
Forced                                   : No
Audio #2
ID                                       : 3
Format                                   : DTS
Format/Info                              : Digital Theater Systems
Codec ID                                 : A_DTS
Duration                                 : 1h 44mn
Bit rate mode                            : Constant
Bit rate                                 : 1 510 Kbps
Channel(s)                               : 6 channels
Channel positions                        : Front: L C R, Side: L R, LFE
Sampling rate                            : 48.0 KHz
Bit depth                                : 24 bits
Compression mode                         : Lossy
Stream size                              : 1.11 GiB (9%)
Title                                    : #2 Живов, DTS 5.1 1510kbps
Language                                 : Russian
Default                                  : No
Forced                                   : No
Audio #3
ID                                       : 4
Format                                   : DTS
Format/Info                              : Digital Theater Systems
Codec ID                                 : A_DTS
Duration                                 : 1h 44mn
Bit rate mode                            : Constant
Bit rate                                 : 755 Kbps
Channel(s)                               : 6 channels
Channel positions                        : Front: L C R, Side: L R, LFE
Sampling rate                            : 48.0 KHz
Bit depth                                : 24 bits
Compression mode                         : Lossy
Stream size                              : 566 MiB (4%)
Title                                    : #3 Супербит/Киномания, DTS 5.1 756kbps
Language                                 : Russian
Default                                  : No
Forced                                   : No
Audio #4
ID                                       : 5
Format                                   : AC-3
Format/Info                              : Audio Coding 3
Mode extension                           : CM (complete main)
Codec ID                                 : A_AC3
Duration                                 : 1h 44mn
Bit rate mode                            : Constant
Bit rate                                 : 448 Kbps
Channel(s)                               : 6 channels
Channel positions                        : Front: L C R, Side: L R, LFE
Sampling rate                            : 48.0 KHz
Bit depth                                : 16 bits
Compression mode                         : Lossy
Stream size                              : 336 MiB (3%)
Title                                    : #4 НТВ, АС3 5.1 448kbps
Language                                 : Russian
Default                                  : No
Forced                                   : No
Audio #5
ID                                       : 6
Format                                   : AC-3
Format/Info                              : Audio Coding 3
Mode extension                           : CM (complete main)
Codec ID                                 : A_AC3
Duration                                 : 1h 44mn
Bit rate mode                            : Constant
Bit rate                                 : 192 Kbps
Channel(s)                               : 2 channels
Channel positions                        : Front: L R
Sampling rate                            : 48.0 KHz
Bit depth                                : 16 bits
Compression mode                         : Lossy
Stream size                              : 144 MiB (1%)
Title                                    : #5 СТС, АС3 2.0 192kbps
Language                                 : Russian
Default                                  : No
Forced                                   : No
Audio #6
ID                                       : 7
Format                                   : DTS
Format/Info                              : Digital Theater Systems
Codec ID                                 : A_DTS
Duration                                 : 1h 44mn
Bit rate mode                            : Constant
Bit rate                                 : 1 510 Kbps
Channel(s)                               : 6 channels
Channel positions                        : Front: L C R, Side: L R, LFE
Sampling rate                            : 48.0 KHz
Bit depth                                : 24 bits
Compression mode                         : Lossy
Stream size                              : 1.11 GiB (9%)
Title                                    : DTS-HD MA CORE 1536K
Language                                 : English
Default                                  : No
Forced                                   : No
Text #1
ID                                       : 8
Format                                   : UTF-8
Codec ID                                 : S_TEXT/UTF8
Codec ID/Info                            : UTF-8 Plain Text
Title                                    : Субтитры с Blu-ray
Language                                 : Russian
Default                                  : No
Forced                                   : No
Text #2
ID                                       : 9
Format                                   : UTF-8
Codec ID                                 : S_TEXT/UTF8
Codec ID/Info                            : UTF-8 Plain Text
Title                                    : Перевод BOBAHC
Language                                 : Russian
Default                                  : No
Forced                                   : No
Text #3
ID                                       : 10
Format                                   : UTF-8
Codec ID                                 : S_TEXT/UTF8
Codec ID/Info                            : UTF-8 Plain Text
Language                                 : English
Default                                  : No
Forced                                   : No

Скриншоты







Последний раз редактировалось: Robot-IX (2013-09-04 02:24), всего редактировалось 1 раз

Создавать темы 04-Сен-2013 02:07

[Профиль]  [ЛС] 

baxa_1818

Стаж: 5 лет 7 месяцев

Сообщений: 62

Симпатии: 3

спасибо автору за фильм.
скачавшие сразу не уходите от раздачи плиз.


Последний раз редактировалось: baxa_1818 (2013-10-03 12:05), всего редактировалось 1 раз

Создавать темы 04-Сен-2013 10:16

[Профиль]  [ЛС] 

shadow91

Стаж: 6 лет 8 месяцев

Сообщений: 60

Благодарю, отличный релиз.

Создавать темы 04-Сен-2013 11:34

[Профиль]  [ЛС] 

DMiTRY

Стаж: 6 лет 7 месяцев

Сообщений: 649

Симпатии: 28

это просто что-то с чем-то.
Релиз супер,10 из 10.
C оформлением наверное помучились....)


Последний раз редактировалось: DMiTRY (2013-09-04 18:35), всего редактировалось 1 раз

Создавать темы 04-Сен-2013 17:10

[Профиль]  [ЛС] 

yura_greek

Стаж: 5 лет 10 месяцев

Сообщений: 59

Симпатии: 6

Шикарные Фильмы!!! Шикарное Качество!!! Качайте!!!

Создавать темы 04-Сен-2013 17:17

[Профиль]  [ЛС] 

Kubaev_Muhiddin

Стаж: 6 лет 10 месяцев

Сообщений: 104

Симпатии: 34

Огого, вот это качество, спасибо Robot-IX

Создавать темы 05-Сен-2013 14:51

[Профиль]  [ЛС] 

Robot-IX ®

Стаж: 5 лет 8 месяцев

Сообщений: 223

Симпатии: 9

Всем Спасибо и пожалуйста! пользуйтесь... ))
p.s от общего мнения.... могу залить семплы!
вопрос на какой сервак? чтобы ни кто не был обижен скоростью при просмотре!
у меня Sarkor.

Создавать темы 06-Сен-2013 10:36

[Профиль]  [ЛС] 

DooM

Стаж: 6 лет 2 месяца

Сообщений: 809

Симпатии: 30

Robot-IX, Классный релиз. Фильмы храните на 25 гиговых дисках?

Создавать темы 06-Сен-2013 10:44

[Профиль]  [ЛС] 

Robot-IX ®

Стаж: 5 лет 8 месяцев

Сообщений: 223

Симпатии: 9

Robot-IX, Классный релиз. Фильмы храните на 25 гиговых дисках?
)) нет USB харды...!

Создавать темы 06-Сен-2013 10:52

[Профиль]  [ЛС] 

DMiTRY

Стаж: 6 лет 7 месяцев

Сообщений: 649

Симпатии: 28

Всем Спасибо и пожалуйста! пользуйтесь... ))
p.s от общего мнения.... могу залить семплы!
вопрос на какой сервак? чтобы ни кто не был обижен скоростью при просмотре!
у меня Sarkor.
да и без сэмплов вроде нормально)

Создавать темы 06-Сен-2013 15:50

[Профиль]  [ЛС] 

Дмитриев

Стаж: 7 лет 6 месяцев

Сообщений: 139

Симпатии: 12

Robot-IX мощный фильмец как и качество спасибо

Создавать темы 06-Сен-2013 19:51

[Профиль]  [ЛС] 

Robot-IX ®

Стаж: 5 лет 8 месяцев

Сообщений: 223

Симпатии: 9

Robot-IX мощный фильмец как и качество спасибо
))

Создавать темы 06-Сен-2013 23:21

[Профиль]  [ЛС] 

shadow91

Стаж: 6 лет 8 месяцев

Сообщений: 60

Скачал) Раздаю на всю катушку=))))))

Создавать темы 07-Сен-2013 22:55

[Профиль]  [ЛС] 

baxa_1818

Стаж: 5 лет 7 месяцев

Сообщений: 62

Симпатии: 3

кто нибудь Доспехи бога такомже коллекции сделайте.

Создавать темы 08-Сен-2013 00:32

[Профиль]  [ЛС] 

eldorado777

Стаж: 7 лет 1 месяц

Сообщений: 118

Симпатии: 11

Скриншоты

Hamidov раздает 6, качает 9
VALTOSS раздает 4, качает 1
=GOSHA= раздает 2, качает 2
hamid777 раздает 8, качает 11
baxa_1818 раздает 2, качает 1
suren раздает 0, качает 2
deejay1976 раздает 1, качает 2
Otabek-73 раздает 20, качает 5
Oybek_ раздает 18, качает 12
charon_87 раздает 20, качает 8
Dustmurod раздает 50, качает 38
При таком раскладе обен между качками ни какой, долго придется вам качать!

Создавать темы 13-Сен-2013 21:28

[Профиль]  [ЛС] 
Показать сообщения:    
Ответить на тему

Текущее время: 16-Дек 06:35

Часовой пояс: UTC + 5



Вы не можете начинать темы
Вы не можете отвечать на сообщения
Вы не можете редактировать свои сообщения
Вы не можете удалять свои сообщения
Вы не можете голосовать в опросах
Вы не можете прикреплять файлы к сообщениям
Вы не можете скачивать файлы