Форсаж 6 / Furious 6 (Джастин Лин / Justin Lin) [2013, США, боевик, триллер, драма, криминал, HDRip][Расширенная версия / Extended Cut](лицензия)

Страницы :  1, 2  След.

Ответить на тему
 

Suxrob89 ®

Стаж: 7 лет 1 месяц

Сообщений: 933

Симпатии: 564

-Форсаж 6 / Furious 6-«Все дороги принадлежат им»- Страна: США
Жанр: боевик, триллер, драма, криминал
Год выпуска: 2013
Продолжительность: 02:11:02
Перевод: Профессиональный (дублированный) [Лицензия]
Cубтитры: нет
Оригинальная аудиодорожка: нет-Режиссер: Джастин Лин / Justin Lin-В ролях: Вин Дизель, Дуэйн Джонсон, Пол Уокер, Люк Эванс, Мишель Родригес, Джина Карано, Джордана Брюстер, Эльса Патаки, Гал Гадот, Тайрез Гибсон, Cанг Кенг, Лудакрис, Джо Таслим, Пол Блэкуэлл-Описание: После того как Доминик и Брайн побывали в Рио, где они ограбили и свергли империю вора в законе, их команда получила 100 миллионов, и наши герои оказались разбросаны по всему миру. Но их привычка вечно жить в бегах не даёт им покоя. Между тем, Хоббс отслеживал организацию смертельно опасных наёмников-водителей по двенадцати странам. Единственный способ остановить эту криминальную группу — это превзойти их на улицах, поэтому Хоббс просит Доминика собрать его элитную команду в Лондоне. За это он обещает полное помилование для Доминика и его друзей, чтобы они смогли наконец вернуться домой к своей семье.- -Качество видео: HDRip
Формат видео: AVI
Видео кодек: XviD
Аудио кодек: AC3
Видео: XviD, 1100 Кбит/с, 720x304
Аудио: AC3, 6 ch, 384 Кбит/с

MediaInfo

F:\Forsage.6.2013.D.HDRip.1400Mb.EXTENDED.avi
General
Complete name : F:\Forsage.6.2013.D.HDRip.1400Mb.EXTENDED.avi
Format : AVI
Format/Info : Audio Video Interleave
File size : 1.37 GiB
Duration : 2h 11mn
Overall bit rate : 1 493 Kbps
Writing application : VirtualDubMod 1.5.10.2 (build 2540/release)
Writing library : VirtualDubMod build 2540/release
Video #0
ID : 0
Format : MPEG-4 Visual
Format profile : Advanced [email protected]
Format settings, BVOP : 2
Format settings, QPel : No
Format settings, GMC : No warppoints
Format settings, Matrix : Default (MPEG)
Codec ID : XVID
Codec ID/Hint : XviD
Duration : 2h 11mn
Bit rate : 1 100 Kbps
Width : 720 pixels
Height : 304 pixels
Display aspect ratio : 2.35:1
Frame rate : 23.976 fps
Color space : YUV
Chroma subsampling : 4:2:0
Bit depth : 8 bits
Scan type : Progressive
Compression mode : Lossy
Bits/(Pixel*Frame) : 0.210
Stream size : 1.01 GiB (74%)
Writing library : XviD 1.2.1 (UTC 2008-12-04)
Audio #1
ID : 1
Format : AC-3
Format/Info : Audio Coding 3
Mode extension : CM (complete main)
Format settings, Endianness : Big
Codec ID : 2000
Duration : 2h 11mn
Bit rate mode : Constant
Bit rate : 384 Kbps
Channel(s) : 6 channels
Channel positions : Front: L C R, Side: L R, LFE
Sampling rate : 48.0 KHz
Bit depth : 16 bits
Compression mode : Lossy
Stream size : 360 MiB (26%)
Alignment : Split accross interleaves
Interleave, duration : 42 ms (1.00 video frame)
Interleave, preload duration : 500 ms

Скриншоты



Последний раз редактировалось: Suxrob89 (2013-09-04 08:02), всего редактировалось 1 раз

Создавать темы 04-Сен-2013 06:44

[Профиль]  [ЛС] 

Lion31

Стаж: 6 лет 7 месяцев

Сообщений: 83

Симпатии: 2

Suxrob89, Спасибо

Создавать темы 04-Сен-2013 07:57

[Профиль]  [ЛС] 

andryuxa79

Стаж: 4 года 10 месяцев

Сообщений: 38

Симпатии: 3

в расширенной версии всегда есть места без перевода.укажите сколько минут здесь без перевода.

Создавать темы 04-Сен-2013 09:15

[Профиль]  [ЛС] 

abuz85

Стаж: 8 лет 8 месяцев

Сообщений: 109

Симпатии: 80

в расширенной версии всегда есть места без перевода.укажите сколько минут здесь без перевода.
Не всегда

Создавать темы 04-Сен-2013 09:32

[Профиль]  [ЛС] 

sergey90

Стаж: 5 лет 3 месяца

Сообщений: 9

Звук в фильме не совпадает временами

Создавать темы 06-Сен-2013 11:39

[Профиль]  [ЛС] 

Atemu

Стаж: 4 года 8 месяцев

Сообщений: 18

уж думал логическое окончание бесконечного бредового фильма, а нет( еще и 7 часть будет.
через 2 минуты после конца фильма смотрите ролик с участием стетхема.
имхо форсаж надо было на 2 части остановить, все что далее уже днище

Создавать темы 06-Сен-2013 14:25

[Профиль]  [ЛС] 

Дмитриев

Стаж: 7 лет 4 месяца

Сообщений: 139

Симпатии: 12

кто нибудь залейте в качестве BDRip-AVC md md md

Создавать темы 06-Сен-2013 19:45

[Профиль]  [ЛС] 

AeRoNHanD

Стаж: 4 года 11 месяцев

Сообщений: 198

Симпатии: 3

кто нибудь залейте в качестве BDRip-AVC md md md
а чем не устраивает тебя HDRip????

Создавать темы 06-Сен-2013 21:00

[Профиль]  [ЛС] 

D.K.

Стаж: 5 лет 5 месяцев

Сообщений: 22

Симпатии: 1

не лицензия вроде как, а чистый звук

Создавать темы 07-Сен-2013 00:20

[Профиль]  [ЛС] 

Дмитриев

Стаж: 7 лет 4 месяца

Сообщений: 139

Симпатии: 12

AeRoNHanD BDRip-AVC немного лучше браток

Создавать темы 07-Сен-2013 12:11

[Профиль]  [ЛС] 

hamilion

Стаж: 5 лет

Сообщений: 155

Симпатии: 14

Дмитриев, может намного???

Создавать темы 04-Окт-2013 00:13

[Профиль]  [ЛС] 

hait

Стаж: 5 лет 7 месяцев

Сообщений: 6

спасибо!

Создавать темы 07-Окт-2013 22:12

[Профиль]  [ЛС] 

baltasar

Стаж: 3 года 8 месяцев

Сообщений: 13

Симпатии: 2

Жалко Пола Уокера. Ему бы еще гонять и гонять..

Создавать темы 29-Янв-2014 19:57

[Профиль]  [ЛС] 

Don_OmaR

Стаж: 5 лет 6 месяцев

Сообщений: 90

Симпатии: 5

Жалко Пола Уокера. Ему бы еще гонять и гонять..
согласен ak
Будет в HDRip вообще ? или остановимся на расширенной?

Создавать темы 29-Янв-2014 22:56

[Профиль]  [ЛС] 

Alex Dancer

Стаж: 5 лет 8 месяцев

Сообщений: 181

Симпатии: 21

В списке 2 сида... Ни одного в юторре не вижу. Вот же гадство!

Создавать темы 21-Ноя-2014 02:24

[Профиль]  [ЛС] 
Показать сообщения:    
Ответить на тему

Текущее время: 26-Сен 18:47

Часовой пояс: UTC + 5



Вы не можете начинать темы
Вы не можете отвечать на сообщения
Вы не можете редактировать свои сообщения
Вы не можете удалять свои сообщения
Вы не можете голосовать в опросах
Вы не можете прикреплять файлы к сообщениям
Вы не можете скачивать файлы