Спаркл / Sparkle (Салим Акил) [2012 г., драма, музыка, DVDRip]

Ответить на тему
 

PIXEL 100 ®

Стаж: 4 года 4 месяца

Сообщений: 49

Симпатии: 8

Спаркл / Sparkle
Год выпуска: 2012
Страна: США
Жанр: драма, музыка
Продолжительность: 01:56:16
Перевод: Любительский (двухголосый)
-
В ролях: Джордин Спаркс, Уитни Хьюстон, Дерек Люк, Майк Эппс, Кармен Эджого,Тика Самптер,Омари Хардвик,Си-Ло...
Режиссёр: Салим Акил
-
Описание: Действие разворачивается в 60-е годы, когда три сестры организовали девичью группу и вскоре стали звездами Мотауна. Но у славы есть и другая сторона — дружная семья постепенно начинает разваливаться.
-
Качество: DVDRip
Формат: AVI
Видео кодек: Xvid
Аудио кодек: AC3
Видео: - Xvid 720x304 23.976fps
Аудио: - Dolby AC3 48000Hz 6ch 384kbps

Media info

Format : AVI
Format/Info : Audio Video Interleave
File size : 1.46 GiB
Duration : 1h 56mn
Overall bit rate : 1 794 Kbps
Writing application : VirtualDubMod 1.5.10.2 (build 2540/release)
Writing library : VirtualDubMod build 2540/release
Video
ID : 0
Format : MPEG-4 Visual
Format profile : Advanced [email protected]
Format settings, BVOP : 2
Format settings, QPel : No
Format settings, GMC : No warppoints
Format settings, Matrix : Custom
Codec ID : XVID
Codec ID/Hint : XviD
Duration : 1h 56mn
Bit rate : 1 401 Kbps
Width : 720 pixels
Height : 304 pixels
Display aspect ratio : 2.35:1
Frame rate : 23.976 fps
Color space : YUV
Chroma subsampling : 4:2:0
Bit depth : 8 bits
Scan type : Progressive
Compression mode : Lossy
Bits/(Pixel*Frame) : 0.267
Stream size : 1.14 GiB (78%)
Writing library : XviD 1.2.1 (UTC 2008-12-04)
Audio
ID : 1
Format : AC-3
Format/Info : Audio Coding 3
Mode extension : CM (complete main)
Format settings, Endianness : Big
Codec ID : 2000
Duration : 1h 56mn
Bit rate mode : Constant
Bit rate : 384 Kbps
Channel(s) : 6 channels
Channel positions : Front: L C R, Side: L R, LFE
Sampling rate : 48.0 KHz
Bit depth : 16 bits
Compression mode : Lossy
Stream size : 319 MiB (21%)
Alignment : Split accross interleaves
Interleave, duration : 42 ms (1.00 video frame)
Interleave, preload duration : 500 ms

Скриншоты

Создавать темы 05-Сен-2013 19:44

[Профиль]  [ЛС] 
Показать сообщения:    
Ответить на тему

Текущее время: 24-Сен 04:35

Часовой пояс: UTC + 5



Вы не можете начинать темы
Вы не можете отвечать на сообщения
Вы не можете редактировать свои сообщения
Вы не можете удалять свои сообщения
Вы не можете голосовать в опросах
Вы не можете прикреплять файлы к сообщениям
Вы не можете скачивать файлы