Armin van Buuren - We Are Here to Make Some Noise [2012 г., Trance, HD 720p]

Ответить на тему
 

4099069 ®

Стаж: 4 года 4 месяца

Сообщений: 23

Симпатии: 6


Исполнитель: Armin van Buuren
Название: We Are Here to Make Some Noise
Год выпуска: 2012
Жанр: Trance
Продолжительность: 03:39
Качество: HD 720p
Формат: MP4
Видео: MPEG-4 AVC, 1280x720, 25.000 fps, 1504 Kbps
Аудио: AAC, 44100Hz stereo, 152 Kbps

Media Info

E:\Klip\HD\Armin Van Buuren - We Are Here To Make Some Noise.mp4
General
Complete name : E:\Klip\HD\Armin Van Buuren - We Are Here To Make Some Noise.mp4
Format : MPEG-4
Format profile : Base Media / Version 2
Codec ID : mp42
File size : 43.3 MiB
Duration : 3mn 39s
Overall bit rate mode : Variable
Overall bit rate : 1 658 Kbps
Encoded date : UTC 2012-05-30 14:54:09
Tagged date : UTC 2012-05-30 14:54:09
gsst : 0
gstd : 219195
gssd : BADC23A26HH1338479686546975
gshh : r6.svo02s07.c.youtube.com
Video #1
ID : 1
Format : AVC
Format/Info : Advanced Video Codec
Format profile : [email protected]
Format settings, CABAC : Yes
Format settings, ReFrames : 1 frame
Codec ID : avc1
Codec ID/Info : Advanced Video Coding
Duration : 3mn 39s
Bit rate : 1 504 Kbps
Maximum bit rate : 3 648 Kbps
Width : 1 280 pixels
Height : 720 pixels
Display aspect ratio : 16:9
Frame rate mode : Constant
Frame rate : 25.000 fps
Color space : YUV
Chroma subsampling : 4:2:0
Bit depth : 8 bits
Scan type : Progressive
Bits/(Pixel*Frame) : 0.065
Stream size : 39.3 MiB (91%)
Tagged date : UTC 2012-05-30 14:54:09
Audio #2
ID : 2
Format : AAC
Format/Info : Advanced Audio Codec
Format profile : LC
Codec ID : 40
Duration : 3mn 39s
Bit rate mode : Variable
Bit rate : 152 Kbps
Maximum bit rate : 239 Kbps
Channel(s) : 2 channels
Channel positions : Front: L R
Sampling rate : 44.1 KHz
Compression mode : Lossy
Stream size : 3.97 MiB (9%)
Title : IsoMedia File Produced by Google, 5-11-2011
Encoded date : UTC 2012-05-30 14:54:09
Tagged date : UTC 2012-05-30 14:54:09

Скриншоты

Создавать темы 06-Сен-2013 21:58

[Профиль]  [ЛС] 
Показать сообщения:    
Ответить на тему

Текущее время: 25-Сен 13:11

Часовой пояс: UTC + 5



Вы не можете начинать темы
Вы не можете отвечать на сообщения
Вы не можете редактировать свои сообщения
Вы не можете удалять свои сообщения
Вы не можете голосовать в опросах
Вы не можете прикреплять файлы к сообщениям
Вы не можете скачивать файлы