Любовью надо дорожить (Сергей Сплошнов) [1959, Мелодрама, DVDScreener]

Ответить на тему
 

Doc_093 ®

Стаж: 6 лет 10 месяцев

Сообщений: 32

Симпатии: 3

Любовью надо дорожить
Жанр: Мелодрама
Год выпуска: 1959
Продолжительность: 01:22:14
Режиссёр: Сергей Сплошнов

В ролях: Нина Иванова, Эдуард Бредун, Зинаида Асмолова, Муза Крепкогорская, Инга Будкевич, Анатолий Адоскин, Татьяна Алексеева, Константин Сорокин, Фёдор Шмаков, Павел Молчанов, Валентина Кравченко
Описание: В одной из комнат общежития камвольного комбината живут четыре девушки-ткачихи: Катя, Тамара, Полина и Зина. Обстоятельства сложились так, что Катю (Нина Иванова) обвинили в нечестном поступке. Все улики против неё. Кате приходится пережить разрыв с любимым человеком, который ей не поверил. Она покидает комбинат и уезжает на далёкую стройку. Но в судьбу Кати активно вмешиваются её подруги, комитет комсомола. Они верят ей, убеждённые в том, что Катя – честный человек. В истории, которая произошла с Катей, неблаговидную роль сыграла Зина. В конце концов она сознаёт свою ошибку. Нелегкие испытания выпадают на долю друга Кати, молодого каменщика Степана (Эдуард Бредун). Честный парень, он только однажды в силу стечения обстоятельств совершает по отношению к Кате ошибку, которую впоследствии пытается искупить. Но Катя не может простить обиду, которую нанёс ей Степан в самую трудную минуту жизни.
Благодарность: за предоставленный DVDSCR некто Андрей
за релиз: pmv
за постер: johnnyleo

Семпл: http://multi-up.com/895347
Качество видео: DVDScreener
Формат видео: AVI
Видео: 720x544 (1.32:1), 25 fps, XviD build 50 ~1999 kbps avg, 0.20 bit/pixel
Аудио: 48 kHz, MPEG Layer 3, 1 ch, ~96.00 kbps avg

MediaInfo

Формат : AVI
Формат/Информация : Audio Video Interleave
Размер файла : 1,21 Гбайт
Продолжительность : 1 ч. 22 м.
Общий поток : 2106 Кбит/сек
Программа кодирования : Lavf53.19.0
Библиотека кодирования : VirtualDub build 35475/release
Видео
Идентификатор : 0
Формат : MPEG-4 Visual
Профиль формата : Advanced [email protected]
Параметр BVOP формата : 2
Параметр QPel формата : Нет
Параметр GMC формата : Без точки перехода
Параметр матрицы формата : Default (H.263)
Идентификатор кодека : XVID
Идентификатор кодека/Подсказка : XviD
Продолжительность : 1 ч. 22 м.
Битрейт : 2000 Кбит/сек
Ширина : 720 пикселей
Высота : 544 пикселя
Соотношение сторон : 4:3
Частота кадров : 25,000 кадров/сек
Цветовое пространство : YUV
Субдискретизация насыщенности : 4:2:0
Битовая глубина : 8 бит
Тип развёртки : Прогрессивная
Метод сжатия : С потерями
Бит/(Пиксели*Кадры) : 0.204
Размер потока : 1,15 Гбайт (95%)
Библиотека кодирования : XviD 1.2.1 (UTC 2008-12-04)
Аудио
Идентификатор : 1
Формат : MPEG Audio
Версия формата : Version 1
Профиль формата : Layer 3
Идентификатор кодека : 55
Идентификатор кодека/Подсказка : MP3
Продолжительность : 1 ч. 22 м.
Вид битрейта : Постоянный
Битрейт : 96,0 Кбит/сек
Каналы : 1 канал
Частота : 48,0 КГц
Метод сжатия : С потерями
Размер потока : 56,5 Мбайт (5%)
Выравнивание : Разделение по промежуткам
Продолжительность промежутка : 40 мс. (1,00 видеокадр)
Время предзагрузки промежутка : 500 мс.

Скриншоты







Последний раз редактировалось: Doc_093 (2013-09-07 02:00), всего редактировалось 2 раз(а)

Создавать темы 07-Сен-2013 00:53

[Профиль]  [ЛС] 

Doc_093 ®

Стаж: 6 лет 10 месяцев

Сообщений: 32

Симпатии: 3

Я в раздаче с 21:00 до 9:00

Создавать темы 07-Сен-2013 20:25

[Профиль]  [ЛС] 
Показать сообщения:    
Ответить на тему

Текущее время: 15-Дек 17:18

Часовой пояс: UTC + 5



Вы не можете начинать темы
Вы не можете отвечать на сообщения
Вы не можете редактировать свои сообщения
Вы не можете удалять свои сообщения
Вы не можете голосовать в опросах
Вы не можете прикреплять файлы к сообщениям
Вы не можете скачивать файлы