[#177]Бен-Гур / Ben-Hur (Уильям Уайлер) [1959, боевик, драма, мелодрама, приключения, история, HDRip]

Ответить на тему
 

truman ®

Стаж: 5 лет 5 месяцев

Сообщений: 26

Симпатии: 1

Бен-Гур / Ben-Hur-- Год выпуска: 1959
Страна: США
Жанр: боевик, драма, мелодрама, приключения, история
Продолжительность: 03:22:58
Перевод: Профессиональный (многоголосый, закадровый)-В ролях: Чарльтон Хестон, Джек Хоукинс, Хая Харарет, Стивен Бойд, Хью Гриффит, Марта Скотт, Кэти О'Доннелл, Финлей Карри, Фрэнк Фринг, Теренс Лонгдон-Режиссёр:Уильям Уайлер-Описание:Действие фильма начинается в Палестине в 26 году от Рождества Христова. Два друга, иудей Бен Гур и римлянин Мессала, встречаются после долгой разлуки взрослыми людьми и понимают, что дружба уже невозможна…-Качество: HDRip
Формат: AVI
Видео кодек: XviD
Аудио кодек: AC3
Видео: XviD, 704x256, 25 fps, 1140 kbps
Аудио: AC3, 48 kHz, 6 ch, 384 kbps-«Бен-Гур» получил 11 премий «Оскар» (включая премии «за лучший фильм» и «за лучшую мужскую роль»), установив непревзойденный для мирового кинематографа рекорд, который сумел повторить лишь два фильма Титаник и Властилин колец возврашеня королья!

список Оскар ов)

Премия "Оскар" в номинации "Лучший фильм";
Премия "Оскар" в номинации "Лучший актер";
Премия "Оскар" в номинации "Лучший монтаж";
Премия "Оскар" в номинации "Лучшая музыка";
Премия "Оскар" в номинации "Лучший режиссер";
Премия "Оскар" в номинации "Лучшая работа художника";
Премия "Оскар" в номинации "Лучший дизайн костюм";
Премия "Оскар" в номинации "Лучший актер второго плана";
Премия "Оскар" в номинации "Лучшие визуальные эффекты";
Премия "Оскар" в номинации "Лучшая операторская работа";
Премия "Оскар" в номинации "Лучший монтаж звуковых эффектов"

Media Info

E:\kino\ben_hur_m.avi
General
Complete name : E:\kino\ben_hur_m.avi
Format : AVI
Format/Info : Audio Video Interleave
Format profile : OpenDML
File size : 2.18 GiB
Duration : 3h 22mn
Overall bit rate : 1 536 Kbps
Director : zim2001
Writing application : VirtualDubMod 1.5.10.2 (build 2540/release)
Video #0
ID : 0
Format : MPEG-4 Visual
Format profile : Advanced [email protected]
Format settings, BVOP : 2
Format settings, QPel : No
Format settings, GMC : No warppoints
Format settings, Matrix : Custom
Codec ID : XVID
Codec ID/Hint : XviD
Duration : 3h 22mn
Bit rate : 1 140 Kbps
Width : 704 pixels
Height : 256 pixels
Display aspect ratio : 2.750
Frame rate : 25.000 fps
Color space : YUV
Chroma subsampling : 4:2:0
Bit depth : 8 bits
Scan type : Progressive
Compression mode : Lossy
Bits/(Pixel*Frame) : 0.253
Stream size : 1.62 GiB (74%)
Writing library : XviD 56
Audio #1
ID : 1
Format : AC-3
Format/Info : Audio Coding 3
Mode extension : CM (complete main)
Format settings, Endianness : Big
Codec ID : 2000
Duration : 3h 22mn
Bit rate mode : Constant
Bit rate : 384 Kbps
Channel(s) : 6 channels
Channel positions : Front: L C R, Side: L R, LFE
Sampling rate : 48.0 KHz
Bit depth : 16 bits
Compression mode : Lossy
Stream size : 557 MiB (25%)
Alignment : Split accross interleaves
Interleave, duration : 40 ms (1.00 video frame)
Interleave, preload duration : 500 ms

Скриншоты


[


Последний раз редактировалось: truman (2013-10-18 17:57), всего редактировалось 1 раз

Создавать темы 08-Сен-2013 08:53

[Профиль]  [ЛС] 

Cool-boy

Стаж: 6 лет 8 месяцев

Сообщений: 19

Фильм 1959 года что он делает в этом разделе?

Создавать темы 11-Сен-2013 08:16

[Профиль]  [ЛС] 

firestarter_xl

Стаж: 4 года 10 месяцев

Сообщений: 50

Симпатии: 2

в IMDb250 его

Создавать темы 11-Сен-2013 11:05

[Профиль]  [ЛС] 

firestarter_xl

Стаж: 4 года 10 месяцев

Сообщений: 50

Симпатии: 2

Узонлайновйы настройте пожалуйста тередо, потому что иначе невозможно с вас качать

Создавать темы 30-Сен-2013 11:25

[Профиль]  [ЛС] 

Топик был перенесен из форума Фильмы за 2010 в форум 250 лучших фильмов по версии IMDb

СтАсИкОс

Создавать темы 18-Окт-2013 17:57

 
Показать сообщения:    
Ответить на тему

Текущее время: 17-Авг 13:06

Часовой пояс: UTC + 5



Вы не можете начинать темы
Вы не можете отвечать на сообщения
Вы не можете редактировать свои сообщения
Вы не можете удалять свои сообщения
Вы не можете голосовать в опросах
Вы не можете прикреплять файлы к сообщениям
Вы не можете скачивать файлы