Стервятники / Scavengers (Трэвис Заривны) [2013 г., фантастика, HDRip]

Ответить на тему
 

igor1968 ®

Стаж: 5 лет 5 месяцев

Сообщений: 366

Симпатии: 197

Стервятники / Scavengers
Год выпуска: 2013
Страна:
Жанр: фантастика
Продолжительность: 01:33:27.722
Перевод: Любительский (одноголосый)
Режиссер: Трэвис Заривны
В ролях: Джон Ли Амес, Роурк Критчлоу, Бретт Куртз, Шон Патрик Флэнери, Дженнифер Джэлен, Луиз Линтон, Джереми Лондон, Дж.Дж. Нолан, Тайлер Поэлль, Расселл Ричардсон ...
Научно-фантастический фильм про космических искателей «ничейных» товаров, энергии и сокровищ. Когда команда под предводительством Эмерсон находит инопланетный Генератор Хаоса, их ждет неприятная встреча с бывшим партнером — злобным капитаном Джекелем.- -Премьера 21 марта 2013, ...-Качество: HDRip
Формат: AVI
Видео кодек: XviD
Аудио кодек: MP3-Видео: Video: 720x304 (2.37:1), 23.976 fps, XviD MPEG-4 ~913 kbps avg, 0.17 bit/pixel-Аудио: 48 kHz, MPEG Layer 3, 2 ch, ~128.00 kbps avg-

MediaInfo

General
Complete name : Scavengers.2013.L1.HDRip.700MB.avi
Format : AVI
Format/Info : Audio Video Interleave
File size : 703 MiB
Duration : 1h 33mn
Overall bit rate : 1 051 Kbps
Writing application : VirtualDubMod 1.5.10.2 (build 2542/release)
Writing library : VirtualDubMod build 2542/release
Video
ID : 0
Format : MPEG-4 Visual
Format profile : Advanced [email protected]
Format settings, BVOP : 2
Format settings, QPel : No
Format settings, GMC : No warppoints
Format settings, Matrix : Default (MPEG)
Muxing mode : Packed bitstream
Codec ID : XVID
Codec ID/Hint : XviD
Duration : 1h 33mn
Bit rate : 914 Kbps
Width : 720 pixels
Height : 304 pixels
Display aspect ratio : 2.35:1
Frame rate : 23.976 fps
Color space : YUV
Chroma subsampling : 4:2:0
Bit depth : 8 bits
Scan type : Progressive
Compression mode : Lossy
Bits/(Pixel*Frame) : 0.174
Stream size : 611 MiB (87%)
Writing library : XviD 1.2.1 (UTC 2008-12-04)
Audio
ID : 1
Format : MPEG Audio
Format version : Version 1
Format profile : Layer 3
Mode : Joint stereo
Codec ID : 55
Codec ID/Hint : MP3
Duration : 1h 33mn
Bit rate mode : Constant
Bit rate : 128 Kbps
Channel(s) : 2 channels
Sampling rate : 48.0 KHz
Compression mode : Lossy
Stream size : 85.6 MiB (12%)
Alignment : Aligned on interleaves
Interleave, duration : 42 ms (1.00 video frame)
Interleave, preload duration : 504 ms
Writing library : LAME3.99r
Encoding settings : -m j -V 4 -q 2 -lowpass 17 -b 128
-

Скриншоты

- -

Создавать темы 08-Сен-2013 16:58

[Профиль]  [ЛС] 

kamaell

Стаж: 4 года 4 месяца

Сообщений: 14

и такое гг ещё качают

Создавать темы 08-Сен-2013 21:32

[Профиль]  [ЛС] 

bagesh

Стаж: 7 лет 3 месяца

Сообщений: 45

тв3

Создавать темы 09-Сен-2013 09:55

[Профиль]  [ЛС] 

Azamat7774

Стаж: 4 года 2 месяца

Сообщений: 13

Симпатии: 4

не качайте. полностью г***о

Создавать темы 10-Сен-2013 20:16

[Профиль]  [ЛС] 

Jaxa blade

Стаж: 4 года 6 месяцев

Сообщений: 18

Симпатии: 2

не советую всем видел на диске

Создавать темы 10-Сен-2013 21:11

[Профиль]  [ЛС] 

100stiks

Стаж: 4 года 6 месяцев

Сообщений: 35

Симпатии: 3

вот что думает о фильме его герой ca

Создавать темы 11-Сен-2013 10:36

[Профиль]  [ЛС] 
Показать сообщения:    
Ответить на тему

Текущее время: 19-Авг 08:46

Часовой пояс: UTC + 5



Вы не можете начинать темы
Вы не можете отвечать на сообщения
Вы не можете редактировать свои сообщения
Вы не можете удалять свои сообщения
Вы не можете голосовать в опросах
Вы не можете прикреплять файлы к сообщениям
Вы не можете скачивать файлы