Город в Котором Ты Живешь OVA / Kimi no Iru Machi / A Town Where You Live [1-2 of 2] [RUS JAP + 2 rus soft subs] [848x480] [2012 г., романтика, DVDRip]

Ответить на тему
 

Black_Obelisk ®

Стаж: 6 лет 4 месяца

Сообщений: 17

Город в Котором Ты Живешь OVA / Kimi no Iru Machi / A Town Where You Live -Год выпуска: 2012
Страна: Япония
Режиссер: Ёсиура Ясухиро
Жанр: романтика
Продолжительность: 2 эпизода по 29 мин.
Перевод: Любительский (многоголосый)
Озвучивали: Lali, S1nxron, Мулентий, Муневра
Показ: Март 16, 2012 – Июнь 15, 2012
Студия: Tatsunoko
Источник Релиза:
Скачано с: RuTracker-В ролях:
Haruto Kirishima (桐島 青大 Kirishima Haruto)
Озвучивал: Yoshimasa Hosoya
Yuzuki Eba (枝葉 柚希 Eba Yuzuki)
Озвучивала: Megumi Nakajima-Описание: История этих эпизодов повествует о поездке главного героя, Киришимы Харуто, живущего в небольшом городке в Хиросиме, в Токио на школьную экскурсию. Его девушка Эба Юдзуки живёт в Токио. И они договариваются встретится в свободное время, что бы провести вместе немного времени, так как их теперь разделяет расстояние между городами. В этой поездке с ними всякое случаются. И на фоне этих событий автор показывает и рассказывает нам вкратце как они познакомились и как полюбили друг друга.-Качество: DVDRip
Формат: MKV
Видео: 848х480, x264, ~1500 kbps, 29.970 fps
Аудио:
Звук (Russian): AC3, 192 kbps, 48 000 Hz, 2 ch | [MVO]
Звук (Japanese): AC3, 192 kbps, 48 000 Hz, 2 ch | [Original]
Субтитры:
Субтитры (Russian): ASS, встроенные | надписи и лирика (включены по умолчанию)
Субтитры (Russian): ASS, встроенные | полный перевод

Скриншоты

Media Info

General
Unique ID : 214958007252997450612807772711552107561 (0xA1B76802FA4898D3948C81EA00A14429)
Complete name : D:\Downloads\Torrents\!My Torrents\Kimi_no_Iru_Machi_OVA_[1-2_of_2]_[RUS_JAP]_[848x480]_[MVO]_[AniFilm]\Kimi_no_Iru_Machi_OVA_[1_of_2]_[RUS_JAP]_[848x480]_[MVO]_[AniFilm].mkv
Format : Matroska
Format version : Version 2
File size : 491 MiB
Duration : 28mn 24s
Overall bit rate : 2 414 Kbps
Encoded date : UTC 2012-10-25 18:55:27
Writing application : mkvmerge v3.3.0 ('Language') built on Mar 24 2010 14:59:24
Writing library : libebml v0.8.0 + libmatroska v0.9.0
Attachment : Yes / Yes / Yes / Yes / Yes
Video
ID : 1
Format : AVC
Format/Info : Advanced Video Codec
Format profile : [email protected]
Format settings, CABAC : Yes
Format settings, ReFrames : 8 frames
Codec ID : V_MPEG4/ISO/AVC
Duration : 28mn 24s
Bit rate : 1 982 Kbps
Nominal bit rate : 2 501 Kbps
Width : 848 pixels
Height : 480 pixels
Display aspect ratio : 16:9
Frame rate mode : Constant
Frame rate : 23.976 fps
Original frame rate : 29.970 fps
Color space : YUV
Chroma subsampling : 4:2:0
Bit depth : 8 bits
Scan type : Progressive
Bits/(Pixel*Frame) : 0.203
Stream size : 403 MiB (82%)
Title : [Taka]_Kimi no Iru Machi_OVA1_480p
Writing library : x264 core 120 r2164 da19765
Encoding settings : cabac=1 / ref=8 / deblock=1:1:1 / analyse=0x3:0x133 / me=umh / subme=9 / psy=1 / psy_rd=0.50:0.00 / mixed_ref=1 / me_range=32 / chroma_me=1 / trellis=0 / 8x8dct=1 / cqm=0 / deadzone=21,11 / fast_pskip=1 / chroma_qp_offset=-2 / threads=6 / sliced_threads=0 / nr=0 / decimate=1 / interlaced=0 / bluray_compat=0 / constrained_intra=0 / bframes=16 / b_pyramid=0 / b_adapt=1 / b_bias=0 / direct=3 / weightb=1 / open_gop=0 / weightp=2 / keyint=300 / keyint_min=29 / scenecut=40 / intra_refresh=0 / rc=2pass / mbtree=0 / bitrate=2501 / ratetol=1.0 / qcomp=0.60 / qpmin=10 / qpmax=51 / qpstep=4 / cplxblur=20.0 / qblur=0.5 / ip_ratio=1.40 / pb_ratio=1.30 / aq=0
Language : Japanese
Default : Yes
Forced : Yes
Audio #1
ID : 2
Format : AC-3
Format/Info : Audio Coding 3
Mode extension : CM (complete main)
Format settings, Endianness : Big
Codec ID : A_AC3
Duration : 28mn 24s
Bit rate mode : Constant
Bit rate : 192 Kbps
Channel(s) : 2 channels
Channel positions : Front: L R
Sampling rate : 48.0 KHz
Bit depth : 16 bits
Compression mode : Lossy
Stream size : 39.0 MiB (8%)
Title : Russian 2.0 AniFilm.Tv (MVO)
Language : Russian
Default : Yes
Forced : Yes
Audio #2
ID : 3
Format : AC-3
Format/Info : Audio Coding 3
Mode extension : CM (complete main)
Format settings, Endianness : Big
Codec ID : A_AC3
Duration : 28mn 24s
Bit rate mode : Constant
Bit rate : 192 Kbps
Channel(s) : 2 channels
Channel positions : Front: L R
Sampling rate : 48.0 KHz
Bit depth : 16 bits
Compression mode : Lossy
Stream size : 39.0 MiB (8%)
Title : Japanese 2.0
Language : Japanese
Default : No
Forced : No
Text #1
ID : 4
Format : ASS
Codec ID : S_TEXT/ASS
Codec ID/Info : Advanced Sub Station Alpha
Compression mode : Lossless
Title : Russian Text
Language : Russian
Default : Yes
Forced : Yes
Text #2
ID : 5
Format : ASS
Codec ID : S_TEXT/ASS
Codec ID/Info : Advanced Sub Station Alpha
Compression mode : Lossless
Title : Russian Sub
Language : Russian
Default : No
Forced : No

Создавать темы 09-Сен-2013 17:12

[Профиль]  [ЛС] 

Black_Obelisk ®

Стаж: 6 лет 4 месяца

Сообщений: 17

У меня при просмотре через KMP выдаёт много мусора, и складывается ощущение что видео дорожки местами битые. Через Media Classic все нормально.

Создавать темы 09-Сен-2013 17:54

[Профиль]  [ЛС] 

Boris_T

Стаж: 6 лет 6 месяцев

Сообщений: 127

Симпатии: 2

Сейчас свои файлы переименую и постараюсь помочь с раздачей. Вроде размер и хеш такой же.
З.Ы. Файлы не битые, звуковые дорожки нормальные. Аппрувд бай Чак Норрис.

Создавать темы 09-Сен-2013 21:52

[Профиль]  [ЛС] 

Топик был перенесен из форума DVD, DVDRip в форум OVA и дополнения к аниме
Азиз87

Создавать темы 05-Май-2014 20:28

 
Показать сообщения:    
Ответить на тему

Текущее время: 22-Окт 07:57

Часовой пояс: UTC + 5



Вы не можете начинать темы
Вы не можете отвечать на сообщения
Вы не можете редактировать свои сообщения
Вы не можете удалять свои сообщения
Вы не можете голосовать в опросах
Вы не можете прикреплять файлы к сообщениям
Вы не можете скачивать файлы