Я плюю на ваши могилы 2 / I Spit On Your Grave 2 (Стивен Р. Монро / Stiven R. Monro) [2013, США, ужасы, триллер, криминал, HDRip] [UNRATED][Чистый звук]

Ответить на тему
 

Suxrob89 ®

Стаж: 7 лет 1 месяц

Сообщений: 933

Симпатии: 564

-Я плюю на ваши могилы 2 / I Spit On Your Grave 2 -«Выжить, чтобы отомстить»- Страна: США
Жанр: ужасы, триллер, криминал
Год выпуска: 2013
Продолжительность: 01:46:11
Перевод: Дублированный [Чистый звук]
Cубтитры: нет
Оригинальная аудиодорожка: английский-Режиссер: Стивен Р. Монро / Steven R. Monroe-В ролях: Джемма Даллендер, Джо Эбсолом, Явор Бахаров, Александр Алексеев, Мэри Стокли, Майкл Диксон, Валентин Пелка, Питер Сильверлиф, Георг Златарев-Описание: Красавица Кэти только что переехала в Нью-Йорк, чтобы сделать карьеру модели. Но девичьи мечты о роскошной жизни разбиваются: ее насилуют, пытают, а вскоре похищают и увозят в непонятном направлении. Кэти оказывается одна в чужой стране, где ее почти что похоронят заживо. Чудом избежав смерти, девушка решает жестоко отомстить обидчикам...- -Качество видео: HDRip (BDRip 720p [PHD])
Формат видео: AVI
Видео: ХviD, 1996 kb/s, 720х304
Аудио: Russian: AC3 Dolby Digital 6 ch 48000 Гц, 448 kb/s
Аудио 2: English: AC3 Dolby Digital 6 ch 48000 Гц, 320 kb/s

MediaInfo

F:\Ia.plyu.na.vashu.mogily.2013.D.HDRip.avi
General
Complete name : F:\Ia.plyu.na.vashu.mogily.2013.D.HDRip.avi
Format : AVI
Format/Info : Audio Video Interleave
Format profile : OpenDML
File size : 2.06 GiB
Duration : 1h 46mn
Overall bit rate : 2 771 Kbps
Movie name : Ia.plyu.na.vashu.mogily.2013.D.HDRip.2100Mb.INTERCINEMA
Director : INTERCINEMA
Writing application : VirtualDubMod 1.5.10.2 (build 2540/release)
Copyright : http://intercinema.net
Video #0
ID : 0
Format : MPEG-4 Visual
Format profile : Advanced [email protected]
Format settings, BVOP : 2
Format settings, QPel : No
Format settings, GMC : No warppoints
Format settings, Matrix : Default (MPEG)
Codec ID : XVID
Codec ID/Hint : XviD
Duration : 1h 46mn
Bit rate : 1 985 Kbps
Width : 720 pixels
Height : 304 pixels
Display aspect ratio : 2.35:1
Frame rate : 23.976 fps
Color space : YUV
Chroma subsampling : 4:2:0
Bit depth : 8 bits
Scan type : Progressive
Compression mode : Lossy
Bits/(Pixel*Frame) : 0.378
Stream size : 1.47 GiB (72%)
Writing library : XviD 1.2.1 (UTC 2008-12-04)
Audio #1
ID : 1
Format : AC-3
Format/Info : Audio Coding 3
Mode extension : CM (complete main)
Format settings, Endianness : Big
Codec ID : 2000
Duration : 1h 46mn
Bit rate mode : Constant
Bit rate : 448 Kbps
Channel(s) : 6 channels
Channel positions : Front: L C R, Side: L R, LFE
Sampling rate : 48.0 KHz
Bit depth : 16 bits
Compression mode : Lossy
Stream size : 340 MiB (16%)
Alignment : Split accross interleaves
Interleave, duration : 42 ms (1.00 video frame)
Interleave, preload duration : 500 ms
Audio #2
ID : 2
Format : AC-3
Format/Info : Audio Coding 3
Mode extension : CM (complete main)
Format settings, Endianness : Big
Codec ID : 2000
Duration : 1h 46mn
Bit rate mode : Constant
Bit rate : 320 Kbps
Channel(s) : 6 channels
Channel positions : Front: L C R, Side: L R, LFE
Sampling rate : 48.0 KHz
Bit depth : 16 bits
Compression mode : Lossy
Stream size : 243 MiB (12%)
Alignment : Split accross interleaves
Interleave, duration : 42 ms (1.00 video frame)
Interleave, preload duration : 500 ms

Скриншоты



Последний раз редактировалось: Suxrob89 (2013-10-07 06:17), всего редактировалось 2 раз(а)

Создавать темы 10-Сен-2013 06:13

[Профиль]  [ЛС] 

Дмитриев

Стаж: 7 лет 3 месяца

Сообщений: 139

Симпатии: 12

Suxrob89 Спасибо за релиз

Создавать темы 10-Сен-2013 09:27

[Профиль]  [ЛС] 

xCharmed

Стаж: 3 года 10 месяцев

Сообщений: 13

дайте скорости!

Создавать темы 26-Ноя-2013 21:31

[Профиль]  [ЛС] 

tanuki

Стаж: 3 года 11 месяцев

Сообщений: 60

Симпатии: 3

Та еще клюква. Неужели так трудно нанять консультанта? Хотя бы студента медика.

Создавать темы 11-Дек-2013 22:25

[Профиль]  [ЛС] 

rEhAb

Стаж: 6 лет 2 месяца

Сообщений: 27

Симпатии: 1

полное уг, много насилия....

Создавать темы 18-Дек-2013 13:40

[Профиль]  [ЛС] 

gold_nik

Стаж: 6 лет 5 месяцев

Сообщений: 9

Кто скачал вернитесь на раздачу

Создавать темы 23-Дек-2013 22:30

[Профиль]  [ЛС] 

TrainMaster

Стаж: 6 лет 8 месяцев

Сообщений: 9

Симпатии: 1

разве не ради сцен насилия снимали фильм ?

Создавать темы 23-Дек-2013 22:40

[Профиль]  [ЛС] 

sanni89

Стаж: 5 лет 8 месяцев

Сообщений: 21

Симпатии: 7

ban раздача будет или как...?

Создавать темы 20-Фев-2014 19:41

[Профиль]  [ЛС] 

kamoladdin

Стаж: 6 лет 4 месяца

Сообщений: 41

Симпатии: 1

фильм отличный буду качать но только раздачи нет жалко

Создавать темы 04-Мар-2014 20:54

[Профиль]  [ЛС] 

no name

Стаж: 4 года 11 месяцев

Сообщений: 1

ЗА РЕЛИЗ СПАСИБО

Создавать темы 16-Мар-2014 16:41

[Профиль]  [ЛС] 

vertu

Стаж: 4 года 7 месяцев

Сообщений: 5

Невтемное насилие, но главная мораль все таки есть "всегда делай контрольный", чтобы не было потом проблем )

Создавать темы 17-Мар-2014 01:03

[Профиль]  [ЛС] 

Sirojbek

Стаж: 3 года 9 месяцев

Сообщений: 1

a che ostanovilsya na poiske pirov?

Создавать темы 03-Янв-2015 23:55

[Профиль]  [ЛС] 

sancholi

Стаж: 6 лет 7 месяцев

Сообщений: 17

Симпатии: 1

Дайте скорости плиз последние 4% осталось!

Создавать темы 06-Янв-2015 22:14

[Профиль]  [ЛС] 

Ahilless

Стаж: 5 лет 7 месяцев

Сообщений: 111

Симпатии: 6

всем раздающим спасибо!!!

Создавать темы 23-Июн-2017 23:57

[Профиль]  [ЛС] 
Показать сообщения:    
Ответить на тему

Текущее время: 20-Сен 07:14

Часовой пояс: UTC + 5



Вы не можете начинать темы
Вы не можете отвечать на сообщения
Вы не можете редактировать свои сообщения
Вы не можете удалять свои сообщения
Вы не можете голосовать в опросах
Вы не можете прикреплять файлы к сообщениям
Вы не можете скачивать файлы